Watch ROH Wrestling Online 2020 10 04 720p

ROH Wrestling Online 2020 10 04 720p DX-TV

Watch ROH Wrestling Online

 

 Watch ROH Wrestling Online

 

Watch ROH Wrestling Online 2020 10 04 720p

 

Complete name : ROH.Wrestling.2020.10.04.720p.HDTV.x264-NWCHD.mp4
Format : MPEG-4
Format profile : Base Media
Codec ID : mp42
File size : 1.53 GiB
Duration : 46 min 34 s
bit rate mode : Variable
Overall bit rate : 4 717 kb/s

Watch ROH Wrestling Online

Video
ID : 1
Format : AVC
Duration : 46 min 34 s
Bit rate : 4 500 kb/s
Width : 1 280 pixels
Height : 720 pixels
Display aspect ratio : 16:9
Frame rate mode : Constant
Frame rate : 29.970 FPS
Color space : YUV
Chroma subsampling : 4:2:0
Bit depth : 8 bits
Scan type : Progressive
Bits/(Pixel*Frame) : 0.163
Stream size : 1.47 GiB (96%)
Color range : Limited
Color primaries : BT.709
Transfer characteristics : BT.709
Matrix coefficients : BT.709
Codec configuration box : avcC

Watch ROH Wrestling Online

Audio
ID : 2
Format : AAC LC
Format/Info : Advanced Audio
Codec ID : mp4a-40-2
Duration : 46 min 34 s
Bit rate mode : Variable
Bit rate : 192 kb/s
Channel(s) : 2 channels
Channel layout : L R
Sampling rate : 48.0 kHz
Frame rate : 46.875 FPS
Compression mode : Lossy
Stream size : 64.1 MiB (4%)
Title : Stereo / Stereo
Language : English
Default : Yes
Alternate group : 1

Watch ROH Wrestling Online

BLOCK A

Jay Lethal vs. David Finlay

How they got here: Lethal defeated Dalton Castle by pinfall in the first round; Finlay defeated Rocky Romero by pinfall in the first round.

Lethal continues his quest to be the first man to regain the Pure Championship. Standing in his way is Finlay,

a member of the New Japan Pro-Wrestling roster who wants to prove his promotion’s superiority by beating “The Franchise of ROH.”

Lethal and Finlay have never met in a singles match, but they have been on opposite sides twice in tag team competition, with Finlay’s team winning both.

While Lethal came through his first-round match healthy, Finlay’s surgically repaired left shoulder was heavily targeted in his first-round bout and could be an issue for him.

The winner of this match will advance to the Block A finals against the winner of the semifinal bout between Fred Yehi and Tracy Williams.

 

 

Watch ROH Wrestling Online 2020 10 04 720p

 

Watch online

 

 

Server 1

 

 

 

 

watch now

 

 

 

 

Server-2

 

 

 

watch now

 

 

 

 

Server-3

 

 

 

watch now

 

 

 

 

Uploaded By Site DX-TV.com

 

 

 

 

Download Free Links with normal and high Speed [ more 14 hosts ]  

 

 

 

http://shrt10.com/BZ1NT
http://shrt10.com/Qpmmb
http://shrt10.com/z5aS1FBw
http://shrt10.com/cBHlhd
http://shrt10.com/wY8PKPN
http://shrt10.com/emCVbr
http://shrt10.com/e2nffmTV
http://shrt10.com/Q7M18AJ6
http://shrt10.com/WTTyNT
http://shrt10.com/OwVsg
http://shrt10.com/fmevHOEe
http://shrt10.com/XjO75J

 

 

 

 

Download Links with premium High Speed   

 

 

 

nitroflare.com

 

 

 

rapidgator.net

 

 

 

uploaded.net

 

 

 

uploadgig.com

 

 

 

 

 

dx-tv.com

 

urlfree.net

Leave a Reply

Your email address will not be published. Required fields are marked *

This site uses Akismet to reduce spam. Learn how your comment data is processed.