Watch ROH Wrestling 8th Oct 2021 Replay

Watch ROH Wrestling 8th Oct 2021 1080p Full Show Replay DX-TV

ROH Wrestling

 ROH Wrestling

 

 

 

Download Links with premium High Speed
 


Dopapk

 

 

Show Links

 

 

 

 

Nitroflare

 

 

Show Links

 

 

Rapidgator

 

 

Show Links

 

 

 

Uploaded
 

 

Show Links

 

 

 

 

 

Watch ROH Wrestling online

 

Server 1

 

 

 

 

watch now

 

 

 

 

Server-2

 

 

 

 

ROH Wrestling

 

 

 

|Server-3

 

 

 

 

Watch ROH Wrestling

 

 

Uploaded By Site DX-TV.com

 

 

Open Info Show

 

 

Complete name : ROH.Wrestling.Ep.525.8th.Oct.2021.1080p.WEBRip.h264-TJ.mp4
Format : MPEG-4
Format profile : Base Media
Codec ID : isom1/mp41)
File size : 1.31 GiB
Duration : 50 min 43 s
Overall bit rate : 3 690 kb/s

 ROH Wrestling

Video
ID : 1
Format : AVC
Duration : 50 min 43 s
Bit rate : 3 490 kb/s
Width : 1 920 pixels
Height : 1 080 pixels
Display aspect ratio : 16:9
Frame rate mode : Constant
Frame rate : 29.970 (30000/1001) FPS
Color space : YUV
Chroma subsampling : 4:2:0
Bit depth : 8 bits
Scan type : Progressive
Bits/(Pixel*Frame) : 0.056
Stream size : 1.24 GiB (95%)
Writing library : Zencoder System
Color range : Limited
Color primaries : BT.709
Transfer characteristics : BT.709
Matrix coefficients : BT.709
Codec configuration box : avcC

Watch ROH Wrestling

Audio
ID : 2
Format : AAC LC
Codec ID : mp4a-40-2
Duration : 50 min 43 s
Bit rate mode : Constant
Bit rate : 192 kb/s
Channel(s) : 2 channels
Channel layout : L R
Sampling rate : 48.0 kHz
Frame rate : 46.875 FPS (1024 SPF)
Compression mode : Lossy
Stream size : 69.6 MiB (5%)
Default : Yes
Alternate group : 1

Watch ROH Wrestling

Width : 1 920 pixels
Height : 1 080 pixels
Display aspect ratio : 16:9
Frame rate mode : Constant
Frame rate : 29.970 (30000/1001) FPS
Color space : YUV
Chroma subsampling : 4:2:0
Bit depth : 8 bits
Scan type : Progressive
Bits/(Pixel*Frame) : 0.056
Stream size : 1.24 GiB (95%)
Writing library : Zencoder System
Color range : Limited
Color primaries : BT.709
Transfer characteristics : BT.709
Matrix coefficients : BT.709
Codec configuration box : avcC

Watch ROH Wrestling

Audio
ID : 2
Format : AAC LC
Codec ID : mp4a-40-2
Duration : 50 min 43 s
Bit rate mode : Constant
Bit rate : 192 kb/s
Channel(s) : 2 channels
Channel layout : L R
Sampling rate : 48.0 kHz
Frame rate : 46.875 FPS (1024 SPF)
Compression mode : Lossy
Stream size : 69.6 MiB (5%)
Default : Yes
Alternate group : 1

https://dx-tv.com/

 

 

 

 

 

You May Also Like

Leave a Reply

Your email address will not be published. Required fields are marked *

This site uses Akismet to reduce spam. Learn how your comment data is processed.