Watch ROH Wrestling 720p 05 07 2020 Free

ROH Wrestling 720p 05 07 2020 HDTV NWCHD DX-TV

 

Watch Wrestling

 WWE Raw
 

 

Watch ROH Wrestling 720p 05 07 2020 Free

 

 

 

Complete name : ROH.Wrestling.2020.07.05.720p.HDTV.x264-NWCHD.mp4
Format : MPEG-4
Format profile : Base Media / Version 2
Codec ID : mp42
File size : 1.52 GiB
Duration : 46 min 34 s
Overall bit rate mode : Variable
Overall bit rate : 4 658 kb/s
Encoded date :Watch Wrestling
Tagged date : UTC 2020-07-06
Writing application :

 ROH Wrestling 720p 05 07 2020 Free

Video
ID : 1
Format : AVC
Format/Info : Advanced Video Codec
bprofile : [email protected]
Format settings : CABAC / 4 Ref Frames
asettings, CABAC : Yes
Watch Wrestling : 4 frames
Codec ID : avc1
Codec ID/Info : Advanced Video Coding
Duration : 46 min 34 s
Bit rate : 4 500 kb/s
Width : 1 280 pixels
Height : 720 pixels
Display aspect ratio : 16:9
Frame rate mode : Constant
Frame rate : 29.970 (30000/1001) FPS
Color space : YUV
Chroma subsampling : 4:2:0
Bit depth : 8 bits
Scan type : Progressive
Bits/(Pixel*Frame) : 0.163
Stream size : 1.45 GiB (96%)
Color range : Limited
Color primaries : BT.709
Transfer Watch Wrestling : BT.709
Matrix coefficients : BT.709
Codec configuration box : avcC

 ROH Wrestling 720p 05 07 2020 Free

Audio
ID : 2
Format : AAC LC
Format/Info : Watch Wrestling Low Complexity
Codec ID : mp4a-40-2
Duration : 46 min 34 s
Bit rate mode : Variable
Bit rate : 192 kb/s
Channel(s) : 2 channels
Channel layout : L R
Sampling rate : 48.0 kHz
Frame rate : 46.875 FPS (1024 SPF)
Watch Wrestling mode : Lossy
Stream size : 64.0 MiB (4%)
Title : Stereo / Stereo
Default : Yes
Alternate group : 1
Encoded date : UTC 2020-07-06
Tagged date : UTC 2020-07-06

 

 

Watch ROH Wrestling 720p 05 07 2020 Free

 

 

 

Watch online

 

 

Server 1

 

 

 

 

watch now

 

 

 

 

Server 2

 

 

 

watch now

 

 

 

Server-3

 

 

 

watch now

 

 

 

Uploaded By Site DX-TV.com

 

 

 

Download with premium account Links 

 

 

Keep2Share

 

 

nitroflare.com

 

 

rapidgator.net

 

 

uploadgig.com

 

 

 

dx-tv.com

 

urlfree.net

Leave a Reply

Your email address will not be published. Required fields are marked *

This site uses Akismet to reduce spam. Learn how your comment data is processed.