watch ROH Wrestling 6 Nov 2020 1080p

roh

 ROH Wrestling 6 Nov 2020 1080p DX-TV

watch Online ROH Wrestling

 

 watch Online ROH Wrestling
 


 

watch ROH Wrestling 6 Nov 2020 1080p

 

Complete name : ROH.Wrestling.Ep.477.6th.Nov.2020.1080p.WEBRip.h264-TJ.mp4
Format : MPEG-4
Format profile : Base Media
Codec ID : isom
File size : 1.31 GiB
Duration : 50 min 43 s
Overall bit rate mode : Variable
Overall bit rate : 3 691 kb/s
Writing application : Lavf58.51.101

watch Online ROH Wrestling

Video
ID : 1
Format : AVC
Duration : 50 min 43 s
Bit rate : 3 491 kb/s
Width : 1 920 pixels
Height : 1 080 pixels
aspect ratio : 16:9
Frame rate mode : Constant
Frame rate : 29.970 FPS
Color space : YUV
Chroma subsampling : 4:2:0
Bit depth : 8 bits
Scan type : Progressive
Bits/(Pixel*Frame) : 0.056
Stream size : 1.24 GiB (95%)
Codec configuration box : avcC

watch Online ROH Wrestling

Audio
ID : 2
Format : AAC LC
Format/Info : Advanced Audio
Codec ID : mp4a-40-2
Duration : 50 min 43 s
Bit rate mode : Variable
Bit rate : 192 kb/s
Maximum bit rate : 196 kb/s
Channel(s) : 2 channels
Channel layout : L R
Sampling rate : 48.0 kHz
Frame rate : 46.875 FPS
Compression mode : Lossy
Stream size : 69.6 MiB (5%)
Default : Yes
Alternate group : 1

watch Online ROH Wrestling

All eyes will be on Brody King when he officially begins his transition into singles competition on this weekend’s episode However.

I’m just as interested perhaps even more so to see what his opponent, Dalton Castle, has in store for the violent big man.

Castle is out to prove that he’s a more dangerous competitor than he’s given credit for. It’s the same mindset he had going into the ROH Pure Title Tournament.

After losing a hard-fought match to fellow former ROH World Champion Jay Lethal in the first round.

Castle is even more motivated to show that his eccentric personality and flashy ring attire belie a killer instinct.

“I’ve never been more focused in my life. I’ve never been more enraged in my life,” Castle said.

“You think I’m going to sit back and let someone make a name off me? No way. I feel like something is changing inside me.

I go through every single day feeling scared and confused and angry, and I try to deal with these emotions and they always come out in the same way, and that is rage.

 

watch ROH Wrestling 6 Nov 2020 1080p

 

Watch online

 

 

Server 1

 

 

 

 

watch Online ROH Wrestling

 

 

 

 

Server-2

 

 

 

watch now

 

 

 

 

 

 

Uploaded By Site DX-TV.com

 

 

 

 

Download Free Links with normal and high Speed [ more 14 hosts ]  

 

[su_expand more_text=”Show Hosts Info” less_text=”Close all Info” height=”30″ text_color=”#000000″ link_color=”#e25f8b” link_style=”button” more_icon=”icon: arrow-down” less_icon=”icon: arrow-up”]

 

 Online ROH Wrestling

hexupload.net – clicknupload.co – www.multiup.org – uptobox.com – anonfiles.com – userscloud.com –

dropapk.to alfafile.net – ddownload.com – rockfile.co – 1fichier.com – filedown.org – katfile.com – filerio.in

 

 

[/su_expand]

 

 

http://shrt10.com/HPm4cM1EU
http://shrt10.com/AXlAx
http://shrt10.com/jYGqP
http://shrt10.com/TEQjbRc
http://shrt10.com/d3ehCD6
http://shrt10.com/HK1ZW
http://shrt10.com/qFMY0ORGl
http://shrt10.com/eDiSAkif

 

 

 

 

Download Links with premium High Speed   

 

 

 

 

dropapk.to

 

 

 

nitroflare.com

 

 

 

rapidgator.net

 

 

 

uploaded.net

 

 

 

uploadgig.com

 

 

 

 

 

dx-tv.com

 

urlfree.net

You May Also Like

Leave a Reply

Your email address will not be published. Required fields are marked *

This site uses Akismet to reduce spam. Learn how your comment data is processed.