Watch ROH Wrestling 2nd Nov 2018 720p WEBRip mp4

Watch ROH Wrestling 2nd Nov 2018 720p WEBRip mp4

 

 

 

 


 

 

dx-tv.com

 

 

 

 

Complete name : ROH.Wrestling.2nd.Nov.2018.720p.WEBRip.h264-TJ.mp4
Format : MPEG-4
Format profile : Base Media
File size : 1.12 GiB
Duration : 51 min 0 s
Overall bit rate : 3 150 kb/s
Writing application : Lavf57.83.100

Video
ID : 1
Format : AVC
Format/Info : Advanced Video Codec
Codec ID/Info : Advanced Video Coding
Duration : 51 min 0 s
Bit rate : 3 072 kb/s
Width : 1 280 pixels
Height : 720 pixels
Display aspect ratio : 16:9
Frame rate mode : Variable
Frame rate : 29.970
Minimum frame rate : 29.960 FPS
Maximum frame rate : 29.970 FPS
Color space : YUV
Chroma subsampling : 4:2:0
Bit depth : 8 bits
Scan type : Progressive
Bits/(Pixel*Frame) : 0.111
Stream size : 1.07 GiB (96%)

Audio
ID : 2
Format : AAC
Format/Info : Advanced Audio Codec
Format profile : LC
Codec ID : mp4a-40-2
Duration : 51 min 0 s
Bit rate mode : Constant
Bit rate : 129 kb/s
Channel(s) : 2 channels
Channel positions : Front: L R
Sampling rate : 44.1 kHz
Frame rate : 43.066 FPS (1024 SPF)
Compression mode : Lossy
Stream size : 47.0 MiB (4%)
Default : Yes
Alternate group : 1

 

 

Watch ROH Wrestling 2nd Nov 2018 720p WEBRip mp4

 

 

 

 

Watch online

 

 

Waiting finish converting video

 

 

Server 1

 

 

 

 

 

 

 

 

 

 

 

 

 

Server 2

 

 

 

 

 

 

 

 

 

 

 

 

 

Uploaded By Site DX-TV.com

 

 

 

open rar file to see this password

 

 

 

 

The password : DX-TV.com

 

 

 

 

Uploaded.net + rapidgator.net

 

 

 

 

 
http://shrt10.com/ER14oB

 

 

 

 
http://shrt10.com/OMiaO5
 

 

 

 

 

 

 

Watch ROH Wrestling 2nd Nov 2018 720p WEBRip mp4

Leave a Reply

This site uses Akismet to reduce spam. Learn how your comment data is processed.