Watch ROH Wrestling 2020 12 06 720p DX-TV

ROH Wrestling 2020 12 06 720p DX-TV

Watch ROH Wrestling

 

Watch ROH Wrestling

 

[su_expand more_text=”Show More Info” less_text=”Close all Info” height=”50″ text_color=”#000000″ link_color=”#e25f8b” link_style=”button” more_icon=”icon: arrow-down” less_icon=”icon: arrow-up”]
Complete name : ROH.Wrestling.2020.12.06.720p.HDTV.x264-NWCHD.mp4
Format : MPEG-4
Format profile : Base Media
Codec ID : mp42
File size : 1.53 GiB
Duration : 46 min 32 s
Overall bit rate mode : Variable
Overall bit rate : 4 693 kb/s

Watch ROH Wrestling

Video
ID : 1
Format : AVC
Duration : 46 min 32 s
Bit rate : 4 500 kb/s
Width : 1 280 pixels
Height : 720 pixels
Display aspect ratio : 16:9
Frame rate mode : Constant
Frame rate : 29.970 (30000/1001) FPS
Color space : YUV
Chroma subsampling : 4:2:0
Bit depth : 8 bits
Scan type : Progressive
Bits/(Pixel*Frame) : 0.163
Stream size : 1.46 GiB (96%)
Color range : Limited
Color primaries : BT.709
Transfer characteristics : BT.709
Matrix coefficients : BT.709
Codec configuration box : avc

Watch ROH Wrestling

Audio
ID : 2
Format : AAC LC
Format/Info : Advanced Audio
Codec ID : mp4a-40-2
Duration : 46 min 32 s
Bit rate mode : Variable
Bit rate : 192 kb/s
Channel(s) : 2 channels
Channel layout : L R
Sampling rate : 48.0 kHz
Frame rate : 46.875 FPS
Compression mode : Lossy
Stream size : 64.2 MiB
Title : Stereo / Stereo
Language : English
Default : Yes
Alternate group : 1

watch ROH 

 

[/su_expand]

 

 

Watch online

 

Server 1

 

 

 

 

Watch ROH Wrestling

 

 

 

 

Server-2

 

 

 

 

watch now

 

 

Uploaded By Site DX-TV.com

Watch ROH 

Download Links with premium High Speed   

 

 

 

 

dropapk.to

 

 

 

nitroflare.com

 

 

 

rapidgator.net

 

 

 

uploaded.net

 

 

 

uploadgig.com

 

https://dx-tv.com/

 ROH Wrestling

Leave a Reply

Your email address will not be published. Required fields are marked *

This site uses Akismet to reduce spam. Learn how your comment data is processed.