Watch ROH Wrestling 2020 09 28 720p

ROH Wrestling 2020 09 28 720p HDTV NWCHD DX-TV

 

Watch Wrestling

 

 Watch Wrestling

 

Watch ROH Wrestling 2020 09 28 720p

 

Complete name : ROH.Wrestling.2020.09.28.720p.HDTV.x264-NWCHD.mp4
Format : MPEG-4
Format profile : Base Media
Codec ID : mp42
File size : 1.53 GiB
Duration : 46 min 33 s
Overall bit rate mode : Variable
Overall bit rate : 4 702 kb/s

Watch Wrestling

Video
ID : 1
Format : AVC
Duration : 46 min 33 s
Bit rate : 4 500 kb/s
Width : 1 280 pixels
Height : 720 pixels
Display aspect ratio : 16:9
Frame rate mode : Constant
rate : 29.970 (30000/1001) FPS
Color space : YUV
Chroma subsampling : 4:2:0
Bit depth : 8 bits
Scan type : Progressive
Bits/(Pixel*Frame) : 0.163
Stream size : 1.46 GiB (96%)
Color range : Limited
Color primaries : BT.709
Transfer characteristics : BT.709
Matrix coefficients : BT.709
Codec configuration box : avcC

Watch Wrestling

Audio
ID : 2
Format : AAC LC
Format/Info : Advanced Audio
Codec ID : mp4a-40-2
Duration : 46 min 33 s
Bit rate mode : Variable
Bit rate : 192 kb/s
Channel(s) : 2 channels
Channel layout : L R
Sampling rate : 48.0 kHz
Frame rate : 46.875 FPS (1024 SPF)
Compression mode : Lossy
Stream size : 64.2 MiB (4%)
Title : Stereo / Stereo
Language : English
Default : Yes
Alternate group : 1

Watch Wrestling

Results, Aired September 28, 2020 

Quinn McKay welcomes viewers to the show and recaps the beginning of the ROH Pure Championship Tournament. In a post-match interview, David Finlay Jr. says he’s feeling good about his chances to win the tournament. He says he plans to beat Jay Lethal, plain and simple. In his post-match interview, Matt Sydal says he was feeling high on life after his win. He says he’s honored to get the chance to face Jonathan Gresham.

Watch Wrestling

In a video package, Fred Yehi recaps his background and his wrestling career. He says he’s always wanted to be a wrestler,

and the dream saved him from following a dangerous path Yehi describes his amateur wrestling background.

He says his style is based on brutality, not technique.

points to Low Ki’s physical toughness as an example. He says he plans to show how savage he is against Silas Young.

Watch Wrestling

In a video package, Young describes his background and his experience working with Ring of Honor icons. He says he’s worked his way to the tops.

Young says he’s been training so he has added some new elements to his arsenal He says he has the home field advantage.

“This tournament is mine,” Young says.

 

 

Watch ROH Wrestling 2020 09 28 720p

 

 

 

 

Watch online

 

 

 

 

 

Server 1

 

 

 

 

watch now

 

 

 

 

Server-2

 

 

 

Watch Wrestling

 

 

 

 

Server-3

 

 

 

Watch ROH

 

 

 

 

Uploaded By Site DX-TV.com

 

 

 

 

Download Free Links with normal and high Speed [ more 15 hosts ]  

 

 

http://shrt10.com/xUnceBkv4

http://shrt10.com/wIss5
http://shrt10.com/RXNtu
http://shrt10.com/cjddhWrp
http://shrt10.com/cN9byC9f
http://shrt10.com/L26ccu
http://shrt10.com/GeFHgK
http://shrt10.com/bfVWB5R
http://shrt10.com/dbGcIH4e
http://shrt10.com/rTNi9
http://shrt10.com/53p8WJ
http://shrt10.com/3ptqw
http://shrt10.com/mWUlWJM

 

 

 

 

Download Links with premium High Speed   

 

 

 

nitroflare.com

 

 

 

rapidgator.net

 

 

 

uploaded.net

 

 

 

uploadgig.com

 

 

 

 

 

dx-tv.com

 

urlfree.net

Leave a Reply

Your email address will not be published. Required fields are marked *

This site uses Akismet to reduce spam. Learn how your comment data is processed.