Watch ROH Wrestling 2020 04 19 720p

ROH Wrestling 2020 04 19 720p DX-TV

Wrestling

 ROH Wrestling

 

 

Watch ROH Wrestling 2020 04 19 720p

 

Complete name : ROH.Wrestling.2020.04.19.720p.HDTV.x264-NWCHD.mp4
Format : MPEG-4
Format profile : Wrestling
Codec ID : mp42
File size : 1.53 GiB
Duration : 46 min 34 s
Overall bit rate mode : Variable
Overall bit rate : 4 701 kb/s

Video
ID : 1
Format : AVC
Format/Info : Advanced Video Codec
Codec ID : avc1
Codec ID/Info : Wrestling
Duration : 46 min 34 s
Bit rate : 4 500 kb/s
Width : 1 280 pixels
Height : 720 pixels
Display aspect ratio : 16:9
Frame rate mode : Wrestling
Frame rate : 29.970 (30000/1001) FPS
Color space : YUV
Chroma subsampling : 4:2:0
Bit depth : 8 bits
Scan type : Progressive
Bits/(Pixel*Frame) : 0.163
Stream size : 1.46 GiB (96%)
Color range : Limited
Color primaries : BT.709
Transfer : Wrestling
Matrix : BT.709
Codec configuration box : avcC

Audio
ID : 2
Format : AAC LC
Format/Info : Wrestling
Codec ID : mp4a-40-2
Duration : 46 min 34 s
Bit rate mode : Variable
Bit rate : 192 kb/s
Channel(s) : 2 channels
Channel layout : Wrestling
Sampling rate : 48.0 kHz
Frame rate : 46.875 FPS (1024 SPF)
Compression mode : Lossy
Stream size : 64.0 MiB (4%)
Title : Stereo / Stereo
Default : Yes
Alternate group : Wrestling

 

 

 

Watch online

 

 

Server 1

 

 

 

 

watch now

 

 

 

 

Server 2

 

 

 

watch now

 

 

 

Watch ROH Wrestling 2020 04 19 720p

 

 

Uploaded By Site DX-TV.com

 

 

Download with Free LinksĀ 

 

 

1fichier.com

 

 

rockfile.co

 

 

 

Download with premium account LinksĀ 

 

 

nitroflare.com

 

 

rapidgator.net

 

 

uploadgig.com

 

 

 

dx-tv.com

 

urlfree.net

 150 total views,  1 views today

Leave a Reply

Your email address will not be published. Required fields are marked *

This site uses Akismet to reduce spam. Learn how your comment data is processed.

%d bloggers like this:
Optimized with PageSpeed Ninja