Watch ROH Wrestling 2020 01 17

Watch ROH Wrestling 2020 01 17 DX-TV

 

 

WWE Raw

 

 

 

 

dx-tv.com

 

 

 

 

Watch ROH Wrestling 2020 01 17

 

 

 

 

 

Complete name : ROH.Wrestling.Ep.435.17th.Jan.2020.FITE.1080p.WEBRip.h264-TJ.mp4
Format : MPEG-4
Format profile : Base Media
File size : 1.55 GiB
Duration : 51 min 0 s
Overall bit rate : 4 359 kb/s
Writing application : Lavf58.35.101

Video
ID : 1
Format : AVC
Duration : 51 min 0 s
Bit rate : 4 257 kb/s
Nominal bit rate : 4 800 kb/s
Width : 1 920 pixels
Height : 1 080 pixels
Display aspect ratio : 16:9
Frame rate mode : Constant
Frame rate : 25.000 FPS
Color space : YUV
Chroma subsampling : 4:2:0
Bit depth : 8 bits
Scan type : Progressive
Bits/(Pixel*Frame) : 0.082
Stream size : 1.52 GiB (98%)
Audio
ID : 2
Format : AAC LC
Codec ID : mp4a-40-2
Duration : 51 min 0 s
Bit rate mode : Constant
Bit rate : 96.0 kb/s
Channel(s) : 2 channels
Channel layout : L R
Sampling rate : 48.0 kHz
Frame rate : 46.875 FPS (1024 SPF)
Compression mode : Lossy
Stream size : 34.9 MiB (2%)
Default : Yes
Alternate group : 1

 

 

 

 

Watch online

 

 

Server 1

 

 

 

 

 

 

 

 

 

 

 

Server 2

 

 

 

 

 

 

 

 

 

 

Server–3

 

 

 

 

 

 

 

 

 

Watch ROH Wrestling 2020 01 17

 

 

 

Uploaded By Site DX-TV.com

 

 

 

 

 

Download VIP Members FTP server Download 1 Link and Free Links 

 

 

 

Limited Time will be removed after 90 days if you need available again pm email admin

 

[member]
 

 

FTP Link Download high speed

[/member]
 

1fichier.com 

 

 

dailyuploads.net

 

 

dl.free.fr

 

 

earn4files.com

 

 

katfile.com

 

 

rockfile.co

 

 

Ubloadbank.com

 

 

filerio.in

 

 

 

Download with premium account Links 

 

 

nitroflare.com

 

 

rapidgator.net

 

 

uploaded.net