Watch ROH Wrestling 2019 05 12 HDTV NWCHD free full show online

Watch ROH Wrestling 2019 05 12 HDTV NWCHD free full show online

 

 

 

 


 

 

 

dx-tv.com

 

 

 

Complete name : ROH.Wrestling.2019.05.12.720p.HDTV.x264-NWCHD.mp4
Format : MPEG-4
Format profile : Base Media / Version 2
Codec ID : mp42 (isom/iso2/avc1/mp41)
File size : 1.52 GiB
Duration : 46 min 37 s
Overall bit rate mode : Variable
Overall bit rate : 4 676 kb/s
Encoded date : UTC 2019-05-12 16:57:02
Tagged date : UTC 2019-05-12 16:57:02

Video
ID : 1
Format : AVC
Format/Info : Advanced Video Codec
Codec ID/Info : Advanced Video Coding
Duration : 46 min 37 s
Bit rate : 4 500 kb/s
Width : 1 280 pixels
Height : 720 pixels
Display aspect ratio : 16:9
Frame rate mode : Constant
Frame rate : 29.970 (30000/1001) FPS
Color space : YUV
Chroma subsampling : 4:2:0
Bit depth : 8 bits
Scan type : Progressive
Bits/(Pixel*Frame) : 0.163
Stream size : 1.46 GiB (96%)
Encoded date : UTC 2019-05-12 16:57:02
Tagged date : UTC 2019-05-12 16:57:02
Color range : Limited
Color primaries : BT.709
Transfer characteristics : BT.709
Matrix coefficients : BT.709
Codec configuration box : avcC

Audio
ID : 2
Format : AAC LC
Format/Info : Advanced Audio Codec Low Complexity
Codec ID : mp4a-40-2
Duration : 46 min 37 s
Bit rate mode : Variable
Bit rate : 192 kb/s
Channel(s) : 2 channels
Channel layout : L R
Sampling rate : 48.0 kHz
Frame rate : 46.875 FPS (1024 SPF)
Compression mode : Lossy
Stream size : 64.2 MiB (4%)
Title : Stereo / Stereo
Default : Yes
Alternate group : 1
Encoded date : UTC 2019-05-12 16:57:02
Tagged date : UTC 2019-05-12 16:57:02

 

 

 

 

 


 

 

 

Watch ROH Wrestling 2019 05 12 HDTV NWCHD free full show online

 

 

 

 

Watch online

 

 

Waiting finish converting video

 

 

Server 1

 

 

 

 

 

 


 

 

 

 

 


 

 

Server 2

 

 

 

 

 

 


 

 

 


 

 

 

Uploaded By Site DX-TV.com

 

 

 

open rar file to see this password

 

 

 

 

The password : DX-TV.com

 

 

 


 

 

https://shrt10.com/LR5r5
 

 
https://shrt10.com/O7QyCnhj
 

 
https://shrt10.com/giq7a
 

 
https://shrt10.com/2edN

 

 

 

 

 

Watch ROH Wrestling 2019 05 12 HDTV NWCHD free full show online

Author: snaw90

Leave a Reply

Your email address will not be published. Required fields are marked *