Watch ROH Wrestling 2019 05 02 HDTV NWCHD full show free mp4

 

 

 

 


 

 

 

dx-tv.com

 

 

 

 

 

Complete name : ROH.Wrestling.2019.05.02.HDTV.x264-NWCHD.mp4
Format : MPEG-4
Format profile : Base Media / Version 2
Codec ID : mp42 (isom/iso2/avc1/mp41)
File size : 528 MiB
Duration : 46 min 31 s
Overall bit rate mode : Variable
Overall bit rate : 1 587 kb/s
Encoded date : UTC 2019-05-05 15:56:09
Tagged date : UTC 2019-05-05 15:56:09

Video
ID : 1
Format : AVC
Format/Info : Advanced Video Codec
Format settings, : 4 frames
Codec ID : avc1
Codec ID/Info : Advanced Video Coding
Duration : 46 min 31 s
Bit rate : 1 400 kb/s
Width : 704 pixels
Height : 400 pixels
Display aspect ratio : 16:9
Frame rate mode : Constant
Frame rate : 29.970 (30000/1001) FPS
Color space : YUV
Chroma subsampling : 4:2:0
Bit depth : 8 bits
Scan type : Progressive
Bits/(Pixel*Frame) : 0.166
Stream size : 462 MiB (87%)
Encoded date : UTC 2019-05-05 15:56:09
Tagged date : UTC 2019-05-05 15:56:09
Color range : Limited
Color primaries : BT.709
Transfer characteristics : BT.709
Matrix coefficients : BT.709
Codec configuration box : avcC

Audio
ID : 2
Format : AAC LC
Format/Info : Advanced Audio Codec Low Complexity
Codec ID : mp4a-40-2
Duration : 46 min 31 s
Bit rate mode : Variable
Bit rate : 192 kb/s
Channel(s) : 2 channels
Channel layout : L R
Sampling rate : 48.0 kHz
Frame rate : 46.875 FPS (1024 SPF)
Compression mode : Lossy
Stream size : 64.0 MiB (12%)
Title : Stereo / Stereo
Default : Yes
Alternate group : 1
Encoded date : UTC 2019-05-05 15:56:09
Tagged date : UTC 2019-05-05 15:56:09

 

 

 

 

 


 

 

 

Watch ROH Wrestling 2019 05 02 HDTV NWCHD full show free mp4

 

 

 

 

Watch online

 

 

Waiting finish converting video

 

 

Server 1

 

 

 

 


 

 

 

 


 

 


 

 

 

Uploaded By Site DX-TV.com

 

 

 

open rar file to see this password

 

 

 

 

The password : DX-TV.com

 

 

 

 

Uploaded.net + rapidgator.net + katfile.com + bitster.cz

 

 

 

 


 

 

 
https://shrt10.com/N85V7
 

 

 
https://shrt10.com/67KxaK
 

 

 
https://shrt10.com/DCqmL
 

 

 
https://shrt10.com/dw2kgrkj
 

 

 
https://shrt10.com/gBldRy

 

 

 

 

 

Watch ROH Wrestling 2019 05 02 HDTV NWCHD full show free mp4