Watch ROH Wrestling 14 May 2021 1080p

Watch ROH Wrestling 14 May 2021 1080p DX-TV

Watch ROH Wrestling

 Watch ROH Wrestling

 

 

 

Download Links with premium High Speed


Dopapk

 

 

Show Links

 

http://shrt10.com/STTHUPh

 

[collapse]

 

 

Nitroflare

 

 

Show Links

 

http://shrt10.com/RfPwDADP

 

[collapse]

 

 

Rapidgator

 

 

Show Links

 

http://shrt10.com/tKOHxK

 

[collapse]

 

 

Uploaded

 

 

Show Links

 

http://shrt10.com/YQ3SNlqho

 

[collapse]

 

 

Watch online

 

Server 1

 

 

 

 

watch now

 

 

 

 

Server-2

 

 

 

 

Watch ROH Wrestling

 

 

 

|Server-3

 

 

 

 

watch now

 

 

Uploaded By Site DX-TV.com

 

 

Show Info This Show

 

 

Complete name : ROH.Wrestling.Ep.504.14th.May.2021.1080p.WEBRip.h264-TJ.mp4
Format : MPEG-4
Format profile : Base Media
Codec ID : isom
File size : 1.31 GiB
Duration : 50 min 43 s
Overall bit rate : 3 691 kb/s

ROH Wrestling

Video
ID : 1
Format : AVC
Duration : 50 min 43 s
Bit rate : 3 492 kb/s
Width : 1 920 pixels
Height : 1 080 pixels
Display aspect ratio : 16:9
Frame rate mode : Constant
Frame rate : 29.970 (30000/1001) FPS
Color space : YUV
Chroma subsampling : 4:2:0
Bit depth : 8 bits
Scan type : Progressive
Bits/(Pixel*Frame) : 0.056
Stream size : 1.24 GiB (95%)
Codec configuration box : avcC

Audio
ID : 2
Format : AAC LC
Format/Info : Advanced Audio
Codec ID : mp4a-40-2
Duration : 50 min 43 s
Bit rate mode : Constant
Bit rate : 192 kb/s
Channel(s) : 2 channels
Channel layout : L R
Sampling rate : 48.0 kHz
Frame rate : 46.875 FPS
Compression mode : Lossy
Stream size : 69.6 MiB (5%)
Default : Yes
Alternate group : 1

ROH Wrestling

Audio
ID : 2
Format : AAC LC
Format/Info : Advanced Audio
Codec ID : mp4a-40-2
Duration : 50 min 43 s
Bit rate mode : Constant
Bit rate : 192 kb/s
Channel(s) : 2 channels
Channel layout : L R
Sampling rate : 48.0 kHz
Frame rate : 46.875 FPS
Compression mode : Lossy
Stream size : 69.6 MiB (5%)
Default : Yes
Alternate group : 1

Audio
ID : 2
Format : AAC LC
Format/Info : Advanced Audio
Codec ID : mp4a-40-2
Duration : 50 min 43 s
Bit rate mode : Constant
Bit rate : 192 kb/s
Channel(s) : 2 channels
Channel layout : L R
Sampling rate : 48.0 kHz
Frame rate : 46.875 FPS
Compression mode : Lossy
Stream size : 69.6 MiB (5%)
Default : Yes
Alternate group : 1

ROH Wrestling

Audio
ID : 2
Format : AAC LC
Format/Info : Advanced Audio
Codec ID : mp4a-40-2
Duration : 50 min 43 s
Bit rate mode : Constant
Bit rate : 192 kb/s
Channel(s) : 2 channels
Channel layout : L R
Sampling rate : 48.0 kHz
Frame rate : 46.875 FPS
Compression mode : Lossy
Stream size : 69.6 MiB (5%)
Default : Yes
Alternate group : 1

ROH Wrestling

 

Audio
ID : 2
Format : AAC LC
Format/Info : Advanced Audio
Codec ID : mp4a-40-2
Duration : 50 min 43 s
Bit rate mode : Constant
Bit rate : 192 kb/s
Channel(s) : 2 channels
Channel layout : L R
Sampling rate : 48.0 kHz
Frame rate : 46.875 FPS
Compression mode : Lossy
Stream size : 69.6 MiB (5%)
Default : Yes
Alternate group : 1

 

 

[collapse]

 

 

https://dx-tv.com/

Leave a Reply

Your email address will not be published. Required fields are marked *

This site uses Akismet to reduce spam. Learn how your comment data is processed.