Watch ROH War Of The Worlds 2019/05/11 Grand Rarids 540p WEB HD DX-TV free full show online

 

 

 

 


 

 

dx-tv.com

 

 

 

 

 

[EVENT]………..: ROH War Of The Worlds 2019/05/11 Grand Rarids 540p WEB HD DX-TV mp4
[RELEASED]……..: 2019.05.11
[SOURCE]……….: WEB DL
[CONTAINER]…….: mp4
[SIZE]…………: 3.08 GB
[Capper Group]….: DX-TV
[Duration]……..: 3 h 28 m
[RESOLUTION]……:960 x 540 {16:9}@ 29.970 FPS
[VIDEO]………..: x264 @ 2000 kbps
[AUDIO]………..: AAC @ 129 kbps
[language]……..: English
 

 

 

Complete name : ROH War Of The Worlds 2019-05-11 Grand Rarids 540p WEB HD DX-TV.mp4
Format : MPEG-4
Format profile : Base Media / Version 2
Codec ID : mp42 (mp42)
File size : 3.09 GiB
Duration : 3 h 28 min
Overall bit rate : 2 128 kb/s
Codirector : codirector
Production studio : studio
ContentType : Unknown Type
Encoded date : UTC 2019-05-12 04:42:25
Tagged date : UTC 2019-05-12 04:42:25

Video
ID : 1
Format : AVC
Format/Info : Advanced Video Codec
Codec ID : avc1
Codec ID/Info : Advanced Video Coding
Duration : 3 h 28 min
Bit rate : 1 999 kb/s
Width : 960 pixels
Height : 540 pixels
Display aspect ratio : 16:9
Frame rate mode : Constant
Frame rate : 29.970 (30000/1001) FPS
Color space : YUV
Chroma subsampling : 4:2:0
Bit depth : 8 bits
Scan type : Progressive
Bits/(Pixel*Frame) : 0.129
Stream size : 2.90 GiB (94%)
Language : English
Codec configuration box : avcC

Audio
ID : 2
Format : AAC LC
Format/Info : Advanced Audio Codec Low Complexity
Codec ID : mp4a-40-2
Duration : 3 h 28 min
Source duration : 3 h 28 min
Bit rate mode : Constant
Bit rate : 122 kb/s
Channel(s) : 2 channels
Channel layout : L R
Sampling rate : 44.1 kHz
Frame rate : 43.066 FPS (1024 SPF)
Compression mode : Lossy
Stream size : 181 MiB (6%)
Source stream size : 181 MiB (6%)
Title : Stereo
Language : English
Default : Yes
Alternate group : 1

 

 

 

 

Watch ROH War Of The Worlds 2019/05/11 Grand Rarids 540p WEB HD DX-TV free full show online

 

 

 

 

Watch online

 

 

Waiting finish converting video

 

 

Server 1

 

 

 

 

 


 

 

 

 

 

Server 2

 

 

 

 

 


 

 

 

Uploaded By Site DX-TV.com

 

 

 

open rar file to see this password

 

 

 

 

The password : DX-TV.com

 

 

 


 

https://shrt10.com/k9JR
 

https://shrt10.com/XrEsLYHl
 

https://shrt10.com/79E1kT
 

https://shrt10.com/ucBsa

 

 

 

Watch ROH War Of The Worlds 2019/05/11 Grand Rarids 540p WEB HD DX-TV free full show online