Watch ROH War Of The Worlds 2019/05/11 Grand Rarids 1080p WEB HD DX-TV free full show online

 

 

 

 


 

 

dx-tv.com

 

 

 

 

 

[EVENT]………..: ROH War Of The Worlds 2019/05/11 Grand Rarids 1080p WEB HD DX-TV mp4
[RELEASED]……..: 2019.05.11
[SOURCE]……….: WEB DL
[CONTAINER]…….: mp4
[SIZE]…………: 7.45 GB
[Capper Group]….: DX-TV
[Duration]……..: 3 h 28 m
[RESOLUTION]……: 1920 x 1080 {16:9}@ 29.970 FPS
[VIDEO]………..: x264 @ 5000 kbps
[AUDIO]………..: AAC @ 129 kbps
[language]……..: English

Watch ROH War Of The Worlds 2019/05/11 Grand Rarids 1080p WEB HD DX-TV free full show online

Complete name : ROH War Of The Worlds 2019-05-11 Grand Rarids 1080p WEB HD DX-TV.mp4
Format : MPEG-4
Format profile : Base Media / Version 2
Codec ID : mp42 (mp42)
File size : 7.45 GiB
Duration : 3 h 28 min
Overall bit rate : 5 129 kb/s
Codirector : codirector
Production studio : studio
ContentType : Unknown Type
Encoded date : UTC 2019-05-12 05:36:17
Tagged date : UTC 2019-05-12 05:36:17

Video
ID : 1
Format : AVC
Format/Info : Advanced Video Codec
Codec ID : avc1
Codec ID/Info : Advanced Video Coding
Duration : 3 h 28 min
Bit rate : 4 998 kb/s
Width : 1 920 pixels
Height : 1 080 pixels
Display aspect ratio : 16:9
Frame rate mode : Constant
Frame rate : 30.000 FPS
Color space : YUV
Chroma subsampling : 4:2:0
Bit depth : 8 bits
Scan type : Progressive
Bits/(Pixel*Frame) : 0.080
Stream size : 7.26 GiB (97%)
Language : English
Codec configuration box : avcC

Audio
ID : 2
Format : AAC LC
Format/Info : Advanced Audio Codec Low Complexity
Codec ID : mp4a-40-2
Duration : 3 h 28 min
Source duration : 3 h 28 min
Bit rate mode : Constant
Bit rate : 122 kb/s
Channel(s) : 2 channels
Channel layout : L R
Sampling rate : 44.1 kHz
Frame rate : 43.066 FPS (1024 SPF)
Compression mode : Lossy
Stream size : 181 MiB (2%)
Source stream size : 181 MiB (2%)
Title : Stereo
Language : English
Default : Yes
Alternate group : 1

 

 

 

Watch online

 

 

Waiting finish converting video

 

 

Server 1

 

 

 

 

 

 

 

 

 

Server 2

 

 

 

 

 

 

 

 

Uploaded By Site DX-TV.com

 

 

 

open rar file to see this password

 

 

 

 

The password : DX-TV.com

 

 

 


 

 

 
https://shrt10.com/iN8u
 

 
https://shrt10.com/6VtgTuBZ
 

 
https://shrt10.com/wZeS6r
 

 
https://shrt10.com/uiSA
 

 
https://shrt10.com/G4vx8
 

 
https://shrt10.com/E3ho665p
 

 

 

 

Watch ROH War Of The Worlds 2019/05/11 Grand Rarids 1080p WEB HD DX-TV free full show online