ROH War Of The Worlds 2019/05/12 Chicago DX-TV

Watch ROH War Of The Worlds 2019/05/12 Chicago DX-TV

 

 

 

 

 

dx-tv.com

 

shrt10.com

 

 

Watch ROH War Of The Worlds 2019/05/12 Chicago DX-TV

 

Night 3: Grand Rapids

During a tag team match between The Kingdom and Villain Enterprises PCO and Brody King, PCO pinned current ROH World Champion Matt Taven. The following week on the Ring of Honor television taping, it was announced that Matt Taven would defend his title against PCO, which was made official.

At G1 Supercard, the Guerillas of Destiny won a winner takes all match for both the ROH Tag Team Championship and the IWGP Tag Team Championship on the line. At Masters of the Craft, Jay Lethal and Jonathan Gresham won a 30-minute Iron Man Match against Lifeblood Mark Haskins and Tracy Williams 2-1 to earn an opportunity against the Guerillas of Destiny. A week later during the ROH television tapings, the match was made official.

 

No.ResultsStipulations
1Coast 2 Coast defeated Alex Coughlin and Karl FredericksTag team match
2Kelly Klein (c) defeated Stacy ShadowsSingles match for the Women of Honor World Championship
3Dalton Castle defeated Cheeseburger and Clark ConnorsThree-way match
4The Kingdom (Matt TavenTK O’Ryan and Vinny Marseglia) defeated Guerrillas of Destiny (Tama Tonga and Tanga Loa) and HIKULEOSix-man tag team match
5Flip Gordon defeated Rhett TitusSingles match
6Los Ingobernables de Japon (Evil and Sanada) defeated The BouncersTag team match
7Tracy Williams defeated Rush, Eli Isom and PJ BlackFour Corner Survival match
8Matt Taven (c) defeated Mark HaskinsSingles match for the ROH World Championship
9Jay LethalHirooki GotoYuji NagataJeff Cobb and Satoshi Kojima defeated The Briscoes (Jay Briscoe and Mark Briscoe), Bully Ray, Shane Taylor and Silas YoungTen-man tag team match

 

 

ROH War Of The Worlds Chicago 2019 05 12 720p DX-TV

 

ROH War Of The Worlds 2019: CHICAGO: Final Lineup
THE BRISCOES VS GUERRILLAS OF DESTINY
EVIL AND SANADA VS KOJIMA AND NAGATA
HIKULEO VS HIROOKI GOTO
PJ BLACK VS KARL FREDERICKS
Four Corner Survival Match: JEFF COBB VS JAY LETHAL VS RUSH VS PCO

 

[EVENT]………..: ROH War Of The Worlds 2019/05/12 Chicago 540p WEB HD DX-TV mp4
[RELEASED]……..: 2019.05.12
[SOURCE]……….: WEB DL
[CONTAINER]…….: mp4
[SIZE]…………: 3.31 GB
[Capper Group]….: DX-TV
[Duration]……..: 3 h 28 m
[RESOLUTION]……: 960 x 540 {16:9}@ 29.970 FPS
[VIDEO]………..: x264 @ 2000 kbps
[AUDIO]………..: AAC @ 129 kbps
[language]……..: English

 

 

Complete name : ROH War Of The Worlds 2019-05-12 Chicago 540p WEB HD DX-TV.mp4
Format : MPEG-4
Format profile : Base Media / Version 2
Codec ID : mp42 (mp42)
File size : 3.31 GiB
Duration : 3 h 42 min
Overall bit rate : 2 126 kb/s
Codirector : codirector
Production studio : studio
ContentType : Unknown Type
Encoded date : UTC 2019-05-13 05:13:15
Tagged date : UTC 2019-05-13 05:13:15

Video
ID : 1
Format : AVC
Format/Info : Advanced Video Codec
Codec ID : avc1
Codec ID/Info : Advanced Video Coding
Duration : 3 h 42 min
Source duration : 3 h 42 min
Bit rate : 2 001 kb/s
Width : 960 pixels
Height : 540 pixels
Display aspect ratio : 16:9
Frame rate mode : Constant
Frame rate : 29.970 (30000/1001) FPS
Color space : YUV
Chroma subsampling : 4:2:0
Bit depth : 8 bits
Scan type : Progressive
Bits/(Pixel*Frame) : 0.129
Stream size : 3.12 GiB (94%)
Source stream size : 3.12 GiB (94%)
Language : English
Codec configuration box : avcC

Audio
ID : 2
Format : AAC LC
Format/Info : Advanced Audio Codec Low Complexity
Codec ID : mp4a-40-2
Duration : 3 h 42 min
Bit rate mode : Constant
Bit rate : 118 kb/s
Channel(s) : 2 channels
Channel layout : L R
Sampling rate : 48.0 kHz
Frame rate : 46.875 FPS (1024 SPF)
Compression mode : Lossy
Stream size : 188 MiB (6%)
Title : Stereo
Language : English
Default : Yes
Alternate group : 1

 

 

 

Watch ROH War Of The Worlds 2019/05/12 Chicago DX-TV

 

 

Watch online

 

 

Waiting finish converting video

 

 

Server 1

 

 

 

 

 

 

 

 

 

 

Server 2

 

 

 

 

 


 

 

 

Uploaded By Site DX-TV.com

 

 

 

open rar file to see this password

 

 

 

 

The password : DX-TV.com

 

 

 


 

 

 

https://shrt10.com/hLbK
 

 
https://shrt10.com/qnfSJf
 

 
https://shrt10.com/1xBad0dV
 

 
https://shrt10.com/pkUP

 

 

 

 

 

Leave a Reply

Your email address will not be published. Required fields are marked *

18 − six =

WhatsApp chat