Watch ROH Unauthorized 11/3/2019 1080p

Watch ROH Unauthorized 11/3/2019 1080p DX-TV

 

 

 

 

 

 

dx-tv.com

 

 

 

 

Watch ROH Unauthorized 11/3/2019 1080p

 

 

 

 

 

Complete name : ROH.2019.11.03.Unauthorized.1080p.WEB.h264-HEEL.mp4
Format : MPEG-4
Format profile : Base Media
Codec ID : isom (isom/iso2/avc1/mp41)
File size : 4.68 GiB
Duration : 2 h 45 min
Overall bit rate : 4 058 kb/s
Writing application : Lavf58.30.100

Video
ID : 1
Format : AVC
Format/Info : Advanced Video Codec
Codec ID/Info : Advanced Video Coding
Duration : 2 h 45 min
Bit rate : 3 916 kb/s
Width : 1 920 pixels
Height : 1 080 pixels
Display aspect ratio : 16:9
Frame rate mode : Variable
Frame rate : 30.000 FPS
Minimum frame rate : 29.412 FPS
Maximum frame rate : 30.303 FPS
Color space : YUV
Chroma subsampling : 4:2:0
Bit depth : 8 bits
Scan type : Progressive
Bits/(Pixel*Frame) : 0.063
Stream size : 4.52 GiB (96%)
Codec configuration box : avcC

Audio
ID : 2
Format : AAC LC
Format/Info : Advanced Audio Codec Low Complexity
Codec ID : mp4a-40-2
Duration : 2 h 45 min
Bit rate mode : Constant
Bit rate : 132 kb/s
Channel(s) : 2 channels
Channel layout : L R
Sampling rate : 48.0 kHz
Frame rate : 46.875 FPS (1024 SPF)
Compression mode : Lossy
Stream size : 154 MiB (3%)
Default : Yes

 

 

Jefe Cobbo & El Villainisto vs. Delirious & Mini Delirious

Mask vs. Mask Tag Team Match

Cheeseburger, Double Cheeseburger, & Triple Cheeseburger vs. Dalton White Castle, Burger Flip Gordon, & Kenny Burger King

Colt Cabana’s Punderful Six Man Tag Team Match

Dan Maff vs. PCO

Singles Match

 

Dragon Lee & Rush vs. LifeBlood (Mark Haskins & Tracy Williams

Tag Team Match

Josh Woods w/ Silas Young vs. Mark Briscoe w/ Jay Briscoe

Partner Kicks Out, Take a Shot Match

Jay Briscoe and Silas Young will be on commentary for the match. Whenever Mark Briscoe or Josh Woods kicks out of a pin attempt, Jay or Silas will take a drink.

Ultimo Guerrero vs. Jonathan Gresham

Singles Match

Jenny Rose & Sumie Sakai vs. The Allure (Angelina Love & Mandy Leon)

Tag Team Match

 

Shane Taylor vs. TBA

Singles Match

 

 

 

Watch online

 

 

Server 1

 

 

 

 

 

 

 

 

 

 

 

 

 

Server 2

 

 

 

 

 

 

 

 

 

 

 

 

 

 

Uploaded By Site DX-TV.com

 

 

 

 

 

Watch ROH Unauthorized 11/3/2019 1080p

 

 

 

 

 

 

Recommended For Free

 

 

 

 

earn4files.com

 

 

 

 

Download with high speed with Premium account

 

 

 

 

nitroflare.com

 

 

 

rapidgator.net

 

 

 

uploaded.net

 

 

 

uploadgig.com

 

 

 

 

 

 

Leave a Reply

Your email address will not be published. Required fields are marked *

This site uses Akismet to reduce spam. Learn how your comment data is processed.