Watch ROH Saturday Night at Center Stage 2020-01-11 DX-TV

Watch ROH Saturday Night at Center Stage PPV 2020-01-11 540p DX-TV

 

 

ROH

 

 

 

 

dx-tv.com

 

 

 

 

Watch ROH Saturday Night at Center Stage 2020-01-11 DX-TV

 

 

 

 

 

Complete name : ROH Saturday Night at Center Stage PPV 2020-01-11 540p WEB x264 DX-TV.mp4
Format : MPEG-4
Format profile : Base Media
Codec ID : mp42 (mp42)
File size : 2.43 GiB
Duration : 2 h 42 min
Overall bit rate : 2 133 kb/s

Video
ID : 1
Format : AVC
Duration : 2 h 42 min
Bit rate : 1 998 kb/s
Width : 960 pixels
Height : 540 pixels
Display aspect ratio : 16:9
Frame rate mode : Constant
Frame rate : 30.000 FPS
Color space : YUV
Chroma subsampling : 4:2:0
Bit depth : 8 bits
Scan type : Progressive
Bits/(Pixel*Frame) : 0.128
Stream size : 2.27 GiB (94%)
Language : English
Codec configuration box : avcC

Audio
ID : 2
Format : AAC LC
Format/Info : Advanced Audio Codec Low Complexity
Codec ID : mp4a-40-2
Duration : 2 h 42 min
Source duration : 2 h 42 min
Bit rate mode : Constant
Bit rate : 128 kb/s
Channel(s) : 2 channels
Channel layout : L R
Sampling rate : 44.1 kHz
Frame rate : 43.066 FPS (1024 SPF)
Compression mode : Lossy
Stream size : 149 MiB (6%)
Source stream size : 149 MiB (6%)
Title : Stereo
Language : English
Default : Yes
Alternate group : 1

 

 

Watch online

 

 

Server 1

 

 

 


 

Watch ROH Saturday Night at Center Stage 2020-01-11 DX-TV

 

 

 

Uploaded By Site DX-TV.com

 

 

 

 

 

Download VIP Members FTP server Download 1 Link and Free Links 

 

 

 

Limited Time will be removed after 90 days if you need available again pm email admin

 

This section is only available to registered users.

1fichier.com 

 

 

dailyuploads.net

 

 

earn4files.com

 

 

 

Download with premium account Links 

 

 

nitroflare.com

 

 

rapidgator.net

 

 

uploaded.net

 

 

 

 

 

 

 

 

 

Categories



Archives