Watch ROH NJPW War of the Worlds 2019/05/09 Night 2 1080p WEB HD DX-TV Free full show online

 

 

 

 


 

 

dx-tv.com

 

 

 

 

 

[EVENT]………..: ROH NJPW War of the Worlds 2019 05 09 Night 2 1080p WEB HD x264 DX-TV mp4
[RELEASED]……..: 2019.05.09
[SOURCE]……….: WEB HD
[CONTAINER]…….: mp4
[SIZE]…………: 6.60 GB
[Capper Group]….: DX-TV
[Duration]……..: 3 h 7 m
[RESOLUTION]……: 1920 x 1080 {16:9}@ 29.970 FPS
[VIDEO]………..: x264 @ 5000 kbps
[AUDIO]………..: AAC @ 129 kbps
[language]……..: English
 

 

Complete name : ROH-NJPW War of the Worlds 2019-05-09 Night 2 1080p WEB HD x264 DX-TV.mp4
Format : MPEG-4
Format profile : Base Media
Codec ID : isom (mp41/avc1)
File size : 6.66 GiB
Duration : 3 h 7 min
Overall bit rate mode : Variable
Overall bit rate : 5 076 kb/s

Video
ID : 2
Format : AVC
Format/Info : Advanced Video Codec
Codec ID : avc1
Codec ID/Info : Advanced Video Coding
Duration : 3 h 7 min
Bit rate mode : Constant
Bit rate : 5 000 kb/s
Width : 1 920 pixels
Height : 1 088 pixels
Original height : 1 080 pixels
Display aspect ratio : 16:9
Frame rate mode : Variable
Frame rate : 30.000 FPS
Minimum frame rate : 29.990 FPS
Maximum frame rate : 30.010 FPS
Color space : YUV
Chroma subsampling : 4:2:0
Bit depth : 8 bits
Scan type : Progressive
Bits/(Pixel*Frame) : 0.080
Stream size : 6.56 GiB (98%)
Language : English
Encoded date : UTC 2019-05-10 02:39:55
Tagged date : UTC 2019-05-10 02:39:55
Codec configuration box : avcC

Audio
ID : 1
Format : AAC LC
Format/Info : Advanced Audio
Codec ID : mp4a-40-2
Duration : 3 h 7 min
Bit rate mode : Variable
Bit rate : 61.4 kb/s
Maximum bit rate : 110 kb/s
Channel(s) : 2 channels
Channel layout : L R
Sampling rate : 48.0 kHz
Frame rate : 46.875 FPS (1024 SPF)
Compression mode : Lossy
Stream size : 82.5 MiB (1%)
Language : English

 

 

 

 

 

Watch ROH NJPW War of the Worlds 2019/05/09 Night 2 1080p WEB HD DX-TV Free full show online

 

 

 

 

Watch online

 

 

Waiting finish converting video

 

 

Server 1

 

 

 

 

 

 

 

 

 

 

 

 

 

Server 2

 

 

 

 

 

 

 

Uploaded By Site DX-TV.com

 

 

 

open rar file to see this password

 

 

 

 

The password : DX-TV.com

 

 

 


https://shrt10.com/07K4g6l6

 

 
https://shrt10.com/ylUYqk1

 

 
https://shrt10.com/ddVcfoSA

 

 
https://shrt10.com/WyRuz

 

 
https://shrt10.com/XUs5k

 

 
https://shrt10.com/YcaTnXuA
 

 

 

 

Watch ROH NJPW War of the Worlds 2019/05/09 Night 2 1080p WEB HD DX-TV Free full show online