Watch ROH NJPW 2018 11 09 Global Wars 2018 Night 3 WEB Me4Life

Watch ROH NJPW 2018 11 09 Global Wars 2018 Night 3 WEB Me4Life

 

 

 

 


 

 

 

dx-tv.com

 

 

 

 

 

 
Complete name : ROH.NJPW.2018.11.09.Global.Wars.2018.Night.3.480p.WEB.h264-H33B.mp4
Format : MPEG-4
Format profile : Base Media
File size : 2.22 GiB
Duration : 3 h 11 min
Overall bit rate : 1 659 kb/s
Encoded date : UTC 2018-11-10 19:24:40
Tagged date : UTC 2018-11-10 19:26:56

Video
ID : 1
Format : AVC
Format/Info : Advanced Video Codec
Codec ID : avc1
Codec ID/Info : Advanced Video Coding
Duration : 3 h 11 min
Source duration : 3 h 11 min
Bit rate : 1 528 kb/s
Width : 854 pixels
Height : 480 pixels
Display aspect ratio : 16:9
Original display aspect rat : 16:9
Frame rate mode : Constant
Frame rate : 30.000 FPS
Color space : YUV
Chroma subsampling : 4:2:0
Bit depth : 8 bits
Scan type : Progressive
Bits/(Pixel*Frame) : 0.124
Stream size : 2.05 GiB (92%)
Source stream size : 2.05 GiB (92%)
Title : Core Media Video
Encoded date : UTC 2018-11-10 19:24:40
Tagged date : UTC 2018-11-10 19:26:56

Audio
ID : 2
Format : AAC
Format/Info : Advanced Audio Codec
Format profile : LC
Codec ID : mp4a-40-2
Duration : 3 h 11 min
Source duration : 3 h 11 min
Bit rate mode : Constant
Bit rate : 128 kb/s
Nominal bit rate : 121 kb/s
Channel(s) : 2 channels
Channel positions : Front: L R
Sampling rate : 44.1 kHz
Frame rate : 43.066 FPS (1024 SPF)
Compression mode : Lossy
Stream size : 176 MiB (8%)
Source stream size : 176 MiB (8%)
Title : Core Media Audio
Default : Yes
Alternate group : 1
Encoded date : UTC 2018-11-10 19:24:40
Tagged date : UTC 2018-11-10 19:26:56

 

 

Watch ROH NJPW 2018 11 09 Global Wars 2018 Night 3 WEB Me4Life

 

 

 

 

Watch online

 

 

Waiting finish converting video

 

 

Server 1

 

 

 

 

 

 

 

 

Server 2

 

 

 

 


 

 

 

 

 

 

Uploaded By Site DX-TV.com

 

 

 

open rar file to see this password

 

 

The password : DX-TV.com

 

Uploaded.net + rapidgator.net

 

 

 

 

http://shrt10.com/oANB

 

 

 
http://shrt10.com/yAkdX0
 

 

 

 

 

 

Watch ROH NJPW 2018 11 09 Global Wars 2018 Night 3 WEB Me4Life

Leave a Reply

This site uses Akismet to reduce spam. Learn how your comment data is processed.