Watch ROH NJPW 2018 11 07 Global Wars 2018 Night 1 1080p WEB H33B

Watch ROH NJPW 2018 11 07 Global Wars 2018 Night 1 1080p WEB H33B

 

 

 

 


 

 

 

dx-tv.com

 

 

 

 

 

Complete name : ROH.NJPW.2018.11.07.Global.Wars.2018.Night.1.1080p.WEB.h264-H33B.mp4
Format : MPEG-4
Format profile : Base Media
File size : 5.49 GiB
Duration : 2 h 34 min
Overall bit rate mode : Variable
Overall bit rate : 5 098 kb/s
Encoded date : UTC 2018-11-08 05:33:37
Tagged date : UTC 2018-11-08 05:36:23

Video
ID : 1
Format : AVC
Format/Info : Advanced Video Codec
Codec ID : avc1
Codec ID/Info : Advanced Video Coding
Duration : 2 h 34 min
Source duration : 2 h 34 min
Source_Duration_LastFrame : 3 ms
Bit rate mode : Constant
Bit rate : 5 000 kb/s
Width : 1 920 pixels
Height : 1 080 pixels
Display aspect ratio : 16:9
Frame rate mode : Constant
Frame rate : 30.000 FPS
Color space : YUV
Chroma subsampling : 4:2:0
Bit depth : 8 bits
Scan type : Progressive
Bits/(Pixel*Frame) : 0.080
Stream size : 5.38 GiB (98%)
Source stream size : 5.38 GiB (98%)
Title : Core Media Video
Encoded date : UTC 2018-11-08 05:33:37
Tagged date : UTC 2018-11-08 05:36:23

Audio
ID : 2
Format : AAC
Format/Info : Advanced Audio Codec
Format profile : LC
Codec ID : mp4a-40-2
Duration : 2 h 34 min
Source duration : 2 h 34 min
Bit rate mode : Variable
Bit rate : 93.4 kb/s
Maximum bit rate : 96.0 kb/s
Channel(s) : 2 channels
Channel positions : Front: L R
Sampling rate : 48.0 kHz
Frame rate : 46.875 FPS (1024 SPF)
Compression mode : Lossy
Stream size : 103 MiB (2%)
Source stream size : 103 MiB (2%)
Title : Core Media Audio
Default : Yes
Alternate group : 1
Encoded date : UTC 2018-11-08 05:33:37
Tagged date : UTC 2018-11-08 05:36:23

 

 

 

 

 

 

 

Watch ROH NJPW 2018 11 07 Global Wars 2018 Night 1 1080p WEB H33B

 

 

 

 

Watch online

 

 

Waiting finish converting video

 

 

Server 1

 

 

 

 

 

 

 

 

 

 

 

 

 

 

 

Server 2

 

 

 

 

 


 

 

 

 

 

 

Uploaded By Site DX-TV.com

 

 

 

open rar file to see this password

 

 

 

 

The password : DX-TV.com

 

 

 

 

Uploaded.net + rapidgator.net

 

 

 

 

 

http://shrt10.com/NbDh92l
 

 

 

http://shrt10.com/OF2f
 

 

 
http://shrt10.com/6FYcD6
 

 

 

http://shrt10.com/7GZjH
 

 

 

 

 

Watch ROH NJPW 2018 11 07 Global Wars 2018 Night 1 1080p WEB H33B

Leave a Reply

This site uses Akismet to reduce spam. Learn how your comment data is processed.