Watch ROH Honor United Bolton 27/10/2019 720p

Watch ROH Honor United Bolton 27/10/2019 720p DX-TV DX-TV

 

 

 

wwe raw

 

 

 

 

dx-tv.com

 

 

 

 

Watch ROH Honor United Bolton 27/10/2019 720p

 

 

 

 

 

Complete name : 2019.10.27.ROH.Honor.United.Bolton.FITE.720p.Me4Life.mp4
Format : MPEG-4
Format profile : Base Media
Codec ID : isom (isom/iso2/avc1/mp41)
File size : 2.04 GiB
Duration : 2 h 33 min
Overall bit rate : 1 903 kb/s

Video
ID : 1
Format : AVC
Format/Info : Advanced Video Codec
Codec ID/Info : Advanced Video Coding
Duration : 2 h 33 min
Bit rate : 1 792 kb/s
Width : 1 280 pixels
Height : 720 pixels
Display aspect ratio : 16:9
Frame rate mode : Variable
Frame rate : 30.000 FPS
Color space : YUV
Chroma subsampling : 4:2:0
Bit depth : 8 bits
Scan type : Progressive
Bits/(Pixel*Frame) : 0.065
Stream size : 1.92 GiB (94%)
Codec configuration box : avcC

Audio
ID : 2
Format : AAC LC
Format/Info : Advanced Audio Codec Low Complexity
Codec ID : mp4a-40-2
Duration : 2 h 33 min
Bit rate mode : Constant
Bit rate : 102 kb/s
Channel(s) : 2 channels
Channel layout : L R
Sampling rate : 48.0 kHz
Frame rate : 46.875 FPS (1024 SPF)
Compression mode : Lossy
Stream size : 111 MiB (5%)
Default : Yes

 

 

 

 

 

 

Watch online

 

 

Waiting finish converting video

 

 

Server 1

 

 

 

 

 

 

 

 

 

 

 

 

 

Server 2

 

 

 

 

 

 

 

 

 

 

 

 

 

 

 

Uploaded By Site DX-TV.com

 

 

 

 

 

Watch ROH Honor United Bolton 27/10/2019 720p

 

 

 

 

 

 

Recommended For Free

 

 

 

4downfiles.org

 

 

 

earn4files.com

 

 

dropmega.com

 

 

 

 

 

 

Download with high speed with Premium account

 

 

 

 

nitroflare.com

 

 

 

rapidgator.net

 

 

 

uploaded.net

 

 

 

uploadgig.com

 

 

 

 

 

 

 39 total views,  1 views today

%d bloggers like this:
Optimized with PageSpeed Ninja