Watch ROH Honor Re-United Edinburgh 2018 08 16 720p WEB Lopatar

Watch ROH Honor Re-United Edinburgh 2018 08 16 720p WEB Lopatar

 

 

 

 


 

 

 

dx-tv.com

 

 

 

 

 

 

 

 

Complete name : ROH.Honor.Re-United.Edinburgh.2018.08.16.720p.WEB-DL.x264-Lopatar.mp4
Format : MPEG-4
Format profile : Base Media
File size : 2.30 GiB
Duration : 2 h 22 min
Overall bit rate : 2 309 kb/s
Writing application : Lavf58.17.101

Video
ID : 1
Format : AVC
Format/Info : Advanced Video Codec
Codec ID : avc1
Codec ID/Info : Advanced Video Coding
Duration : 2 h 22 min
Bit rate : 2 171 kb/s
Width : 1 280 pixels
Height : 720 pixels
Display aspect ratio : 16:9
Frame rate mode : Variable
Frame rate : 30.000 FPS
Minimum frame rate : 29.412 FPS
Maximum frame rate : 30.303 FPS
Color space : YUV
Chroma subsampling : 4:2:0
Bit depth : 8 bits
Scan type : Progressive
Bits/(Pixel*Frame) : 0.079
Stream size : 2.17 GiB (94%)

Audio
ID : 2
Format : AAC
Format/Info : Advanced Audio Codec
Format profile : LC
Codec ID : mp4a-40-2
Duration : 2 h 22 min
Bit rate mode : Constant
Bit rate : 128 kb/s
Channel(s) : 2 channels
Channel positions : Front: L R
Sampling rate : 48.0 kHz
Frame rate : 46.875 FPS (1024 SPF)
Compression mode : Lossy
Stream size : 131 MiB (6%)
Default : Yes
Alternate group : 1

 

 

 

 

 

 

Watch ROH Honor Re-United Edinburgh 2018 08 16 720p WEB Lopatar

 

 

 

 

Watch online

 

 

Waiting finish converting video

 

 

Server 1

 

 

 

 

 

 

 

 

 

 

 

 

 

 

 

 

Server 2

 

 

 

 

 

 

 


 

 

 

 

 

Uploaded By Site DX-TV.com

 

 

 

open rar file to see this password

 

 

 

 

The password : DX-TV.com

 

 

 

 

Uploaded.net + rapidgator.net

 

 

 

 

 

 

http://shrt10.com/n4L8Rs0

 

 

 

 

 

 

http://shrt10.com/qJ8RL

 

 

 

 

 

 

Watch ROH Honor Re-United Edinburgh 2018 08 16 1080p WEB Lopatar