Watch ROH Glory by Honor Baltimore 2018 WEBRip TJ

Watch ROH Glory by Honor Baltimore 2018 WEBRip TJ

 

 

 

 


 

 

 

dx-tv.com

 

 

 

 
Complete name : ROH.Glory.by.Honor.Baltimore.2018.WEBRip.h264-TJ.mp4
Format : MPEG-4
Format profile : Base Media
File size : 2.01 GiB
Duration : 3 h 8 min
Overall bit rate mode : Variable
Overall bit rate : 1 529 kb/s

Video
ID : 1
Format : AVC
Format/Info : Advanced Video Codec
Codec ID/Info : Advanced Video Coding
Duration : 3 h 8 min
Bit rate : 1 400 kb/s
Width : 720 pixels
Height : 404 pixels
Display aspect ratio : 16:9
Original display aspect rat : 16:9
Frame rate mode : Constant
Frame rate : 29.970
Color space : YUV
Chroma subsampling : 4:2:0
Bit depth : 8 bits
Scan type : Progressive
Bits/(Pixel*Frame) : 0.161
Stream size : 1.83 GiB (91%)
Encoded date : UTC 2018-10-13 08:39:42
Tagged date : UTC 2018-10-13 08:39:42
Color range : Limited
Color primaries : BT.709
Transfer characteristics : BT.709
Matrix coefficients : BT.709

Audio
ID : 2
Format : AAC
Format/Info : Advanced Audio Codec
Format profile : LC
Codec ID : mp4a-40-2
Duration : 3 h 8 min
Bit rate mode : Variable
Bit rate : 128 kb/s
Channel(s) : 2 channels
Channel positions : Front: L R
Sampling rate : 48.0 kHz
Frame rate : 46.875 FPS (1024 SPF)
Compression mode : Lossy
Stream size : 172 MiB (8%)
Title : Stereo / Stereo
Default : Yes
Alternate group : 1
Encoded date : UTC 2018-10-13 08:39:42
Tagged date : UTC 2018-10-13 08:39:42

 

 

Watch ROH Glory by Honor Baltimore 2018 WEBRip TJ

 

 

 

 

Watch online

 

 

Waiting finish converting video

 

 

Server 1

 

 

 

 

 

 

 

 

 

 

 

 

 

Server 2

 

 

 

 

 

 

 

 

 

 

 

 

 

 

 

 

Uploaded By Site DX-TV.com

 

 

 

open rar file to see this password

 

 

 

 

The password : DX-TV.com

 

 

 

Uploaded.net + rapidgator.net

 

 

 

 

 

http://shrt10.com/tPFtvAdG

 

 

 

 
http://shrt10.com/T9Rbq9
 

 

 

Watch ROH Glory by Honor Baltimore 2018 WEBRip TJ

Leave a Reply

This site uses Akismet to reduce spam. Learn how your comment data is processed.