Watch ROH Death Before Dishonor IPPV 2018

Watch ROH Death Before Dishonor IPPV 2018

 

 

 

 


 

 

dx-tv.com

 

 

 

Complete name : ROH Death Before Dishonor 2018.mp4
Format : MPEG-4
Format profile : Base Media
Codec ID : mp42 (mp41/isom)
File size : 3.82 GiB
Duration : 2 h 55 min
Overall bit rate : 3 115 kb/s
Encoded date : UTC 2018-09-29 10:05:12
Tagged date : UTC 2018-09-29 10:05:12

Video
ID : 1
Format : AVC
Format/Info : Advanced Video Codec
Codec ID/Info : Advanced Video Coding
Duration : 2 h 55 min
Bit rate : 2 979 kb/s
Width : 1 280 pixels
Height : 720 pixels
Display aspect ratio : 16:9
Frame rate mode : Variable
Frame rate : 29.970
Minimum frame rate : 29.973 FPS
Maximum frame rate : 1 152.808 FPS
Color space : YUV
Chroma subsampling : 4:2:0
Bit depth : 8 bits
Scan type : Progressive
Bits/(Pixel*Frame) : 0.108
Stream size : 3.66 GiB (96%)
Encoded date : UTC 2018-09-29 10:05:12
Tagged date : UTC 2018-09-29 10:05:12

Audio
ID : 2
Format : AAC
Format/Info : Advanced Audio Codec
Format profile : LC
Codec ID : mp4a-40-2
Duration : 2 h 55 min
Bit rate mode : Constant
Bit rate : 128 kb/s
Channel(s) : 2 channels
Channel positions : Front: L R
Sampling rate : 48.0 kHz
Frame rate : 46.875 FPS
Compression mode : Lossy
Stream size : 167 MiB (4%)
Encoded date : UTC 2018-09-29 10:05:12
Tagged date : UTC 2018-09-29 10:05:12
mdhd_Duration : 10543019

 

 

 

 

Watch ROH Death Before Dishonor IPPV 2018

 

 

 

 

Watch online

 

 

Waiting finish converting video

 

 

Server 1

 

 

 

 

 

 

 

 

 

 

 

 

 

 

 

Server 2

 

 

 

 

 

 

 


 

 

 

 

 

Uploaded By Site DX-TV.com

 

 

 

open rar file to see this password

 

 

 

 

The password : DX-TV.com

 

 

 

 

 

 

Uploaded.net + rapidgator.net

 

 

 

 

 

 

 
http://shrt10.com/KdHQNSH

 

 

 

 

 

 
http://shrt10.com/4r1fX
 

 

 

 

 

 

 

 

 

 

Watch ROH Death Before Dishonor IPPV 2018