Watch ROH Death Before Dishonor 2018 PPV WEB DL DX-TV

Watch ROH Death Before Dishonor 2018 PPV WEB DL DX-TV

 

 

 

 


 

 

 

dx-tv.com

 

 

 

Complete name : ROH.Death.Before.Dishonor.2018.PPV.WEB DL.x264.DX-TV.mp4
source video : PPV.1080p HEEL
Format : MPEG-4
Format profile : QuickTime
Codec ID : qt 0000.02
File size : 2.02 GiB
Duration : 2 h 55 min
Overall bit rate : 1 651 kb/s
Writing application : Lavf55.33.100

Video
ID : 1
Format : HEVC
Format/Info : High Efficiency Video Coding
Codec ID/Info : High Efficiency Video Coding
Duration : 2 h 55 min
Bit rate : 1 517 kb/s
Width : 720 pixels
Height : 480 pixels
Display aspect ratio : 3:2
Frame rate mode : Constant
Frame rate : 30.000 FPS
Bits/(Pixel*Frame) : 0.146
Stream size : 1.86 GiB (92%)
Language : English

Audio
ID : 2
Format : AAC
Format/Info : Advanced Audio Codec
Format profile : LC
Codec ID : mp4a-40-2
Duration : 2 h 55 min
Bit rate mode : Constant
Bit rate : 128 kb/s
Channel(s) : 2 channels
Channel positions : Front: L R
Sampling rate : 44.1 kHz
Frame rate : 43.066 FPS (1024 SPF)
Compression mode : Lossy
Stream size : 161 MiB (8%)
Language : English
Default : Yes
Alternate group : 1

 

 

 

 

 

 

 

 

Watch ROH Death Before Dishonor 2018 PPV WEB DL DX-TV

 

 

 

 

Watch online

 

 

Waiting finish converting video

 

 

Server 1

 

 

 

 

 

 

 

 

 

 

 

 

 

 

 

 

 

 

 

 

Server 2

 

 

 

 

 

 


 

 

 

 

 

 

 

Uploaded By Site DX-TV.com

 

 

 

open rar file to see this password

 

 

 

 

The password : DX-TV.com

 

 

 

 

Uploaded.net + rapidgator.net

 

 

 

 

 

 
http://shrt10.com/qrcy7

 

 

 

 

 

 
http://shrt10.com/XylGA
 

 

 

 

 

 

Watch ROH Death Before Dishonor 2018 PPV WEB DL DX-TV