Watch ROH Death Before Dishonor 2018 PPV 720p WEB DL DX-TV

Watch ROH Death Before Dishonor 2018 PPV 720p WEB DL DX-TV

 

 

 

 


 

 

 

dx-tv.com

 

 

 

 

Complete name : ROH.Death.Before.Dishonor.2018.PPV.720p.WEB DL.x264.DX-TV.mp4
source video : PPV.1080p HEEL
Format : MPEG-4
Format profile : Base Media
Codec ID : mp42 (mp42)
File size : 3.74 GiB
Duration : 2 h 55 min
Overall bit rate : 3 051 kb/s
Codirector : codirector
Production studio : studio
ContentType : Unknown Type
Encoded date : UTC 2018-09-30 05:54:14
Tagged date : UTC 2018-09-30 05:54:14

Video
ID : 1
Format : AVC
Format/Info : Advanced Video Codec
Codec ID : avc1
Codec ID/Info : Advanced Video Coding
Duration : 2 h 55 min
Bit rate : 2 916 kb/s
Width : 1 280 pixels
Height : 720 pixels
Display aspect ratio : 16:9
Frame rate mode : Constant
Frame rate : 30.000 FPS
Color space : YUV
Chroma subsampling : 4:2:0
Bit depth : 8 bits
Scan type : Progressive
Bits/(Pixel*Frame) : 0.105
Stream size : 3.57 GiB (96%)
Language : English

Audio
ID : 2
Format : AAC
Format/Info : Advanced Audio Codec
Format profile : LC
Codec ID : mp4a-40-2
Duration : 2 h 55 min
Bit rate mode : Constant
Bit rate : 128 kb/s
Channel(s) : 2 channels
Channel positions : Front: L R
Sampling rate : 44.1 kHz
Frame rate : 43.066 FPS (1024 SPF)
Compression mode : Lossy
Stream size : 161 MiB (4%)
Title : Stereo
Language : English
Default : Yes
Alternate group : 1

 

 

 

 

Watch ROH Death Before Dishonor 2018 PPV 720p WEB DL DX-TV

 

 

 

 

Watch online

 

 

Waiting finish converting video

 

 

Server 1

 

 

 

 

 

 

 

 

 

 

 

 

 

 

 

 

 

 

 

 

Server 2

 

 

 

 

 

 


 

 

 

 

 

 

 

Uploaded By Site DX-TV.com

 

 

 

open rar file to see this password

 

 

 

 

The password : DX-TV.com

 

 

 

 

Uploaded.net + rapidgator.net

 

 

 

 

 

http://shrt10.com/8D4eZ1

 

 

 

 

 

http://shrt10.com/hzudaydq

 

 

 

 

 

 

 

 

Watch ROH Death Before Dishonor 2018 PPV 720p WEB DL DX-TV