Watch ROH Death Before Dishonor 2018 PPV 1080p WEB HEEL

Watch ROH Death Before Dishonor 2018 PPV 1080p WEB HEEL

 

 

 

 


 

 

 

dx-tv.com

 

 

 

Complete name : ROH.Death.Before.Dishonor.2018.PPV.1080p.WEB.h264-HEEL.mp4
Format : MPEG-4
Format profile : Base Media
File size : 5.56 GiB
Duration : 2 h 55 min
Overall bit rate : 4 539 kb/s
Writing application : Lavf58.2.103

Video
ID : 1
Format : AVC
Format/Info : Advanced Video Codec
Codec ID/Info : Advanced Video Coding
Duration : 2 h 55 min
Bit rate : 4 399 kb/s
Width : 1 920 pixels
Height : 1 080 pixels
Display aspect ratio : 16:9
Frame rate mode : Variable
Frame rate : 30.000 FPS
Minimum frame rate : 18.315 FPS
Maximum frame rate : 30.303 FPS
Color space : YUV
Chroma subsampling : 4:2:0
Bit depth : 8 bits
Scan type : Progressive
Bits/(Pixel*Frame) : 0.071
Stream size : 5.39 GiB (97%)

Audio
ID : 2
Format : AAC
Format/Info : Advanced Audio Codec
Format profile : LC
Codec ID : mp4a-40-2
Duration : 2 h 55 min
Bit rate mode : Constant
Bit rate : 132 kb/s
Channel(s) : 2 channels
Channel positions : Front: L R
Sampling rate : 44.1 kHz
Frame rate : 43.066 FPS (1024 SPF)
Compression mode : Lossy
Stream size : 163 MiB (3%)
 

 

 

 

 

 

 

 

Watch ROH Death Before Dishonor 2018 PPV 1080p WEB HEEL

 

 

 

 

Watch online

 

 

Waiting finish converting video

 

 

Server 1

 

 

 

 

 

 

 

 

 

 

 

 

 

 

 

 

 

 

 

 

Server 2

 

 

 

 

 

 


 

 

 

 

 

 

 

Uploaded By Site DX-TV.com

 

 

 

open rar file to see this password

 

 

 

 

The password : DX-TV.com

 

 

 

 

Uploaded.net + rapidgator.net

 

 

 

 

 

http://shrt10.com/PpiZiqt
 

 

 

http://shrt10.com/SdJS7
 

 

 

http://shrt10.com/Vv9wQbww

 

 

 
http://shrt10.com/mJl4qdlC
 

 

 

 

 

 

Watch ROH Death Before Dishonor 2018 PPV 1080p WEB HEEL