Watch ROH Bound by Honor 2020 PPV DX-TV

ROH Bound by Honor 2020 PPV DX-TV

 

Watch

 

 ROH Bound by Honor

 

 

Watch ROH Bound by Honor 2020 PPV DX-TV

 

 

Complete name : ROH Bound by Honor 2020 PPV WEB x264 DX-TV.mp4
Format : MPEG-4
Format profile : Base Media
Codec ID : isom
File size : 1.28 GiB
Duration : 2 h 59 min
Overall bit rate : 1 024 kb/s
Writing application : Lavf57.71.100

Video
ID : 1
Format : AVC
Duration : 2 h 59 min
Bit rate : 889 kb/s
Width : 850 pixels
Height : 480 pixels
Display aspect ratio : 16:9
Original display aspect rat : 16:9
Frame rate mode : Variable
Frame rate : 25.000 FPS
Minimum frame rate : 7.690 FPS
Maximum frame rate : 25.000 FPS
Color space : YUV
Chroma subsampling : 4:2:0
Bit depth : 8 bits
Scan type : Progressive
Bits/(Pixel*Frame) : 0.087
Stream size : 1.11 GiB (87%)

Audio
ID : 2
Format : AAC LC
Format/Info : Watch
Codec ID : mp4a-40-2
Duration : 2 h 59 min
Bit rate mode : Constant
Bit rate : 128 kb/s
Channel(s) : 2 channels
Channel layout : L R
Sampling rate : 44.1 kHz
Frame rate : 43.066 FPS (1024 SPF)
Compression mode : Lossy
Stream size : 164 MiB (13%)
Default : Yes
Alternate group : Watch

 

Watch online

 

 

Server 1

 

 

watch now

 

 

 

Server 2

 

 

 

watch now

 

 

 

Watch ROH Bound by Honor 2020 PPV DX-TV

 

 

Uploaded By Site DX-TV.com

 

 

DDL.to

 

 

rockfile.co

 

 

 

Download with premium account LinksĀ 

 

 

Keep2Share

 

 

alfafile.net

 

 

nitroflare.com

 

 

rapidgator.net

 

 

uploadgig.com

 

 

 

dx-tv.com

 

You May Also Like