Watch ROH 2018 11 04 Survival of the Fittest 1080p WEB HEEL

Watch ROH 2018 11 04 Survival of the Fittest 1080p WEB HEEL

 

 

 

 


 

 

 

dx-tv.com

 

 

 

 

Complete name : ROH.2018.11.04.Survival.of.the.Fittest.1080p.WEB.h264-HEEL.mp4
Format : MPEG-4
Format profile : Base Media
File size : 6.02 GiB
Duration : 3 h 6 min
Overall bit rate : 4 619 kb/s
Writing application : Lavf58.2.103

Video
ID : 1
Format : AVC
Format/Info : Advanced Video Codec
Codec ID : avc1
Codec ID/Info : Advanced Video Coding
Duration : 3 h 6 min
Bit rate : 4 479 kb/s
Width : 1 920 pixels
Height : 1 080 pixels
Display aspect ratio : 16:9
Frame rate mode : Variable
Frame rate : 30.000 FPS
Minimum frame rate : 22.388 FPS
Maximum frame rate : 30.303 FPS
Color space : YUV
Chroma subsampling : 4:2:0
Bit depth : 8 bits
Scan type : Progressive
Bits/(Pixel*Frame) : 0.072
Stream size : 5.84 GiB (97%)

Audio
ID : 2
Format : AAC
Format/Info : Advanced Audio Codec
Format profile : LC
Codec ID : mp4a-40-2
Duration : 3 h 6 min
Bit rate mode : Constant
Bit rate : 132 kb/s
Channel(s) : 2 channels
Channel positions : Front: L R
Sampling rate : 48.0 kHz
Frame rate : 46.875 FPS (1024 SPF)
Compression mode : Lossy
Stream size : 173 MiB (3%)
Default : Yes
Alternate group : 1

 

 

 

Watch ROH 2018 11 04 Survival of the Fittest 1080p WEB HEEL

 

 

 

 

Watch online

 

 

Waiting finish converting video

 

 

Server 1

 

 

 

 

 

 

 

 

 

 

 

 

 

Server 2

 

 

 

 

 

 

 

 

 

 

 

 

Uploaded By Site DX-TV.com

 

 

 

open rar file to see this password

 

 

 

 

The password : DX-TV.com

 

 

 

 

Uploaded.net + rapidgator.net

 

 

 

http://shrt10.com/xDDp
 

 

 

http://shrt10.com/x2tTuH
 

 

 

http://shrt10.com/Ev0ZT0P

 

 

 
http://shrt10.com/YW1emm
 

 

 

 

Watch ROH 2018 11 04 Survival of the Fittest 1080p WEB HEEL

Leave a Reply

This site uses Akismet to reduce spam. Learn how your comment data is processed.