Watch PWG Neon Knights 2018 02 16 WEB DL

Watch PWG Neon Knights 2018 02 16 WEB DL

 

 

 

 

 

wwe

 

 

 

 

 

Complete name : Downloading\pwg kn.mp4
Format : MPEG-4
Format profile : Base Media / Version 2
Codec ID : mp42
File size : 1 008 MiB
Duration : 1h 58mn
Overall bit rate : 1 190 Kbps
Encoded date : UTC 2018-04-05 00:23:56
Tagged date : UTC 2018-04-05 00:23:56

Video
ID : 1
Format : AVC
Format/Info : Advanced Video Codec
Format profile : [email protected]
Codec ID : avc1
Codec ID/Info : Advanced Video Coding
Duration : 1h 58mn
Bit rate mode : Variable
Bit rate : 1 059 Kbps
Maximum bit rate : 2 041 Kbps
Width : 854 pixels
Height : 480 pixels
Display aspect ratio : 16:9
Frame rate mode : Constant
Frame rate : 29.970 fps
Color space : YUV
Chroma subsampling : 4:2:0
Bit depth : 8 bits
Scan type : Progressive
Bits/(Pixel*Frame) : 0.086
Stream size : 897 MiB (89%)

Audio
ID : 2
Format : AAC
Format/Info : Advanced Audio Codec
Format profile : LC
Codec ID : 40
Duration : 1h 58mn
Bit rate mode : Variable
Bit rate : 128 Kbps
Maximum bit rate : 136 Kbps
Channel(s) : 2 channels
Channel positions : Front: L R
Sampling rate : 44.1 KHz
Compression mode : Lossy
Stream size : 108 MiB (11%)
Encoded date : UTC 2018-04-05 00:25:18
Tagged date : UTC 2018-04-05 00:26:11

 

 

 

 

 

Watch PWG Neon Knights 2018 02 16 WEB DL

 

 

 

 

Watch online

 

 

Waiting finish converting video

 

 

Server 1

 

 

 

 

 

 

 

 

 

 

 

 

 

 

Server 2

 

 

 

 

 

 


 

 

 

 

 

Uploaded By Site DX-TV.com

 

 

 

open rar file to see this password

 

 

 

 

The password is : DX-TV.com

 

 

 

 

 

 

 

Uploaded.net + rapidgator.net

 

 

 

 

 

 

http://shrt10.com/fcYCaCkN

 

 

 

 

http://shrt10.com/2K0U

 

 

 

 

 

 

 

 

 

 

Watch PWG Neon Knights 2018 02 16 WEB DL