Watch PWG Mystery Vortex 6

Watch PWG Mystery Vortex 6

 

 

PWG Mystery Vortex 6
PWG Mystery Vortex 6

 

 

 

 

 

dx-tv.com

 

 

 

shrt10.com

 

 

Watch PWG Mystery Vortex 6

 

 

 

 

 

Complete name : PWG Mystery Vortex 6.mp4
Format : MPEG-4
Format profile : Base Media / Version 2
Codec ID : mp42 (mp42/mp41)
File size : 3.67 GiB
Duration : 1 h 46 min
Overall bit rate mode : Variable
Overall bit rate : 4 949 kb/s

Video
ID : 1
Format : AVC
Format/Info : Advanced Video Codec
Codec ID/Info : Advanced Video Coding
Duration : 1 h 46 min
Bit rate mode : Variable
Bit rate : 4 627 kb/s
Maximum bit rate : 5 000 kb/s
Width : 1 280 pixels
Height : 720 pixels
Display aspect ratio : 16:9
Frame rate mode : Constant
Frame rate : 29.970 (30000/1001) FPS
Standard : NTSC
Color space : YUV
Chroma subsampling : 4:2:0
Bit depth : 8 bits
Scan type : Progressive
Bits/(Pixel*Frame) : 0.168
Stream size : 3.43 GiB (93%)
Language : English
Encoded date : UTC 2019-05-22 04:57:51
Tagged date : UTC 2019-05-22 04:57:51
Color range : Limited
Color primaries : BT.709
Transfer characteristics : BT.709
Matrix coefficients : BT.709
Codec configuration box : avcC

Audio
ID : 2
Format : AAC LC
Format/Info : Advanced Audio Codec Low Complexity
Codec ID : mp4a-40-2
Duration : 1 h 46 min
Source duration : 1 h 46 min
Bit rate mode : Variable
Bit rate : 317 kb/s
Maximum bit rate : 452 kb/s
Channel(s) : 2 channels
Channel layout : L R
Sampling rate : 48.0 kHz
Frame rate : 46.875 FPS (1024 SPF)
Compression mode : Lossy
Stream size : 241 MiB (6%)
Source stream size : 241 MiB (6%)
Language : English

 

 

 

 

 

 

Watch online

 

 

Waiting finish converting video

 

 

Server 1

 

 

 

 

 

 

 

 

 

 

 

 

Server 2

 

 

 

 

 

 

 

 

 

 

 

 

 

Uploaded By Site DX-TV.com

 

 

 

https://shrt10.com
https://shrt10.com

 

 

 


 

 

 


 

 

Watch PWG Mystery Vortex 6

 

 

 

 

bitster.cz

 

 

 

multiup.org

 

 

 

nitroflare.com

 

 

 

rapidgator.net

 

 

 

uploaded.net

 

 

 

uploadgig.com

 

 

 

 

 

 

Leave a Reply

Your email address will not be published. Required fields are marked *

WhatsApp chat
%d bloggers like this: