Watch Progress Wrestling Ch 95

Watch Progress Wrestling Ch 95 DX-TV

 

 

wwe raw

 

 

 

 

dx-tv.com

 

 

 

 

Watch Progress Wrestling Ch 95

 

 

 

 

 

Complete name : Chapter 95 Still Chasin.mp4
Format : MPEG-4
Format profile : Base Media
File size : 2.24 GiB
Duration : 3 h 49 min
Overall bit rate : 1 403 kb/s
Writing application : Lavf58.22.100

Video
ID : 1
Format : AVC
Duration : 3 h 49 min
Bit rate : 1 269 kb/s
Width : 924 pixels
Height : 520 pixels
Display aspect ratio : 16:9
Frame rate mode : Variable
Frame rate : 25.000 FPS
Minimum frame rate : 25.000 FPS
Maximum frame rate : 90 000.000 FPS
Color space : YUV
Chroma subsampling : 4:2:0
Bit depth : 8 bits
Scan type : Progressive
Bits/(Pixel*Frame) : 0.106
Stream size : 2.03 GiB (90%)
Codec configuration box : avcC

Audio
ID : 2
Format : AAC LC
Format/Info : Advanced
Duration : 3 h 49 min
Bit rate mode : Constant
Bit rate : 128 kb/s
Channel(s) : 2 channels
Channel layout : L R
Sampling rate : 48.0 kHz
Frame rate : 46.875 FPS (1024 SPF)
Compression mode : Lossy
Stream size : 210 MiB (9%)
Default : Yes

 

 

 

 

 

 

Watch online

 

 

Waiting finish converting video

 

 

Server 1

 

 

 

 

 

 

 

 

 

 

 

 

 

 

Server 2

 

 

 

 

 

 

 

 

 

 

 

 

 

 

 

Uploaded By Site DX-TV.com

 

 

 

 

 

Watch Progress Wrestling Ch 95

 

 

 

 

 

 

Recommended For Free

 

 

 

4downfiles.org

 

 

earn4files.com

 

 

 

fileup.cc

 

 

 

uptobox.com

 

 

 

 

Download with high speed with Premium account

 

 

 

 

nitroflare.com

 

 

 

rapidgator.net

 

 

 

uploaded.net

 

 

 

uploadgig.com

 

 

 

 

 

 

Leave a Reply

Your email address will not be published. Required fields are marked *

2 + 2 =

WhatsApp chat