Watch Progress Wrestling 2019 Chapter 100 1080p

Watch Progress Wrestling 2019 Chapter 100 1080p DX-TV

 

 

wwe raw

 

 

 

 

dx-tv.com

 

 

 

 

Watch Progress Wrestling 2019 Chapter 100 1080p

 

 

 

 

Complete name : PROGRESS.Wrestling.2019.12.30.Chapter.100.1080p.WEB.h264-NCMP.mp4
Format : MPEG-4
Format profile : Base Media
File size : 6.43 GiB
Duration : 3 h 36 min
Overall bit rate : 4 254 kb/s
Writing application : Lavf57.72.101

Video
ID : 1
Format : AVC
Duration : 3 h 36 min
Duration_FirstFrame : -20 ms
Bit rate : 4 049 kb/s
Width : 1 920 pixels
Height : 1 080 pixels
Display aspect ratio : 16:9
Frame rate mode : Variable
Frame rate : 50.000 FPS
Minimum frame rate : 50.000 FPS
Maximum frame rate : 50.028 FPS
Color space : YUV
Chroma subsampling : 4:2:0
Bit depth : 8 bits
Scan type : Progressive
Bits/(Pixel*Frame) : 0.039
Stream size : 6.12 GiB (95%)
Codec configuration box : avcC

Audio
ID : 2
Format : AAC LC
Codec ID : mp4a-40-2
Duration : 3 h 36 min
Bit rate mode : Constant
Bit rate : 192 kb/s
Channel(s) : 2 channels
Channel layout : L R
Sampling rate : 48.0 kHz
Frame rate : 46.875 FPS (1024 SPF)
Compression mode : Lossy
Stream size : 297 MiB (5%)
Default : Yes
Alternate group : 1

 

 

 

 

 

 

Watch online

 

 

Server 1

 

 

 

 

 

 

 

 

 

 

 

Server 2

 

 

 

 

 

 

 

 

 

 

Server–3

 

 

 

 

 

 

 

 

 

Watch Progress Wrestling 2019 Chapter 100 1080p

 

 

 

Uploaded By Site DX-TV.com

 

 

 

 

 

Download VIP Members FTP server Download 1 Link and Free Links 

 

 

 

Limited Time will be removed after 90 days if you need available again pm email admin

 

This section is only available to registered users.

 

1fichier.com 

 

 

earn4files.com

 

 

dl.free.fr

 

 

 

 

Download with premium account Links 

 

 

nitroflare.com

 

 

rapidgator.net

 

 

 

 

Categories

ADS



Archives