Watch Progress Wrestling 2019 03 31 Chapter 87 720p WEB iNDYHEEL mp4

Watch Progress Wrestling 2019 03 31 Chapter 87 720p WEB iNDYHEEL mp4

 

 

 

 


 

 

 

dx-tv.com

 

 

 

 

Complete name : PROGRESS.Wrestling.2019.03.31.Chapter.87.720p.WEB.h264-iNDYHEEL.mp4
Format : MPEG-4
Format profile : Base Media
Codec ID : isom
File size : 3.38 GiB
Duration : 3h 38mn
Overall bit rate : 2 217 Kbps
Writing application : Lavf58.26.101

Video
ID : 1
Format : AVC
Format/Info : Advanced Video Codec
Format settings, CABAC : Yes
Format settings, ReFrames : 3 frames
Codec ID : avc1
Codec ID/Info : Advanced Video Coding
Duration : 3h 48mn
Bit rate mode : Variable
Bit rate : 1 992 Kbps
Width : 1 280 pixels
Height : 720 pixels
Display aspect ratio : 16:9
Frame rate mode : Variable
Color space : YUV
Chroma subsampling : 4:2:0
Bit depth : 8 bits
Scan type : Progressive
Stream size : 3.17 GiB (94%)

Audio
ID : 2
Format : AAC
Format/Info : Advanced Audio Codec
Format profile : LC
Codec ID : 40
Duration : 3h 38mn
Bit rate mode : Constant
Bit rate : 128 Kbps
Channel(s) : 2 channels
Channel positions : Front: L R
Sampling rate : 48.0 KHz
Compression mode : Lossy
Stream size : 200 MiB (6%)

 

 


 

 

 

Watch Progress Wrestling 2019 03 31 Chapter 87 720p WEB iNDYHEEL mp4

 

 

 

 

Watch online

 

 

Waiting finish converting video

 

 

Server 1

 

 

 

 

 

 

 

 

 

 

 

 

 

 

 

Server 2

 

 

 

 

 


 

 

 

 

 

Uploaded By Site DX-TV.com

 

 

 

open rar file to see this password

 

 

 

 

The password : DX-TV.com

 

 

 

 

Uploaded.net + rapidgator.net

 

 

 

 


 

 

 

 
https://shrt10.com/91iIA

 

 

 

 
https://shrt10.com/WdKApJn
 

 

Watch Progress Wrestling 2019 03 31 Chapter 87 720p WEB iNDYHEEL mp4