Watch Pro Wrestling Chaos 2018 02 17 Control Alt Delete Remastered WEB WD /720p

Watch Pro Wrestling Chaos 2018 02 17 Control Alt Delete Remastered WEB WD /720p

 

 

 

 

 

wwe

 

 

 

 

 

 

 

 

Complete name : Pro.Wrestling.Chaos.2018.02.17.Control.Alt.Delete.Remastered.WEB.h264-WD.mp4
Format : MPEG-4
Format profile : Base Media
Codec ID : isom
File size : 1.24 GiB
Duration : 2h 36mn
Overall bit rate : 1 128 Kbps
Writing application : Lavf57.73.100

Video
ID : 1
Format : AVC
Format/Info : Advanced Video Codec
Codec ID : avc1
Codec ID/Info : Advanced Video Coding
Duration : 2h 36mn
Bit rate mode : Variable
Bit rate : 1 024 Kbps
Width : 854 pixels
Height : 480 pixels
Display aspect ratio : 16:9
Frame rate mode : Constant
Frame rate : 30.000 fps
Color space : YUV
Chroma subsampling : 4:2:0
Bit depth : 8 bits
Scan type : Progressive
Bits/(Pixel*Frame) : 0.083
Stream size : 1.12 GiB (91%)
Writing library : x264 core 146
Audio
ID : 2
Format : AAC
Format/Info : Advanced Audio Codec
Format profile : HE-AAC / LC
Codec ID : 40
Duration : 2h 36mn
Bit rate mode : Constant
Bit rate : 96.0 Kbps
Channel(s) : 2 channels
Channel positions : Front: L R
Sampling rate : 44.1 KHz / 22.05 KHz
Compression mode : Lossy
Stream size : 108 MiB (9%)

 

 

 

 

 

 
Singles Match
Alex Steele vs. Chuck Mambo

Tag Team Match
Crazy Teacups (Charlie Sterling & Eddie Ryan) vs. Team H8 (Gideon &
Jeckel)

Singles Match
Jamie Hayter vs. Martina

NWA World Heavyweight Title Match
Nick Aldis (c) vs. Big Grizzly

Singles Match
Andrew Everett vs. Dick Riley

Singles Match
Beano vs. Mark Haskins

Eight Man Tag Team Match
Drew Parker, Mike Bird & The Anti-Fun Police (Chief Deputy Dunne & Los
Federales Santos Jr.) vs. The Brotherhood (ELIJAH, James Drake, Joe
Mezinger & Nathan Bane)
 

 

 

 

 

 

 

 

 

 

Watch Pro Wrestling Chaos 2018 02 17 Control Alt Delete Remastered WEB WD /720p

 

 

 

 

Watch online

 

 

Waiting finish converting video

 

 

Server 1

 

 

 

 

 

 

 

 

 

 

 

 

 

 

 

 

 

 

Server 2

 

 

 

 

 

 

 


 

 

 

 

 

 

Uploaded By Site DX-TV.com

 

 

 

open rar file to see this password

 

 

 

 

The password is : DX-TV.com

 

 

 

 

400p+720p

 

 

 

 

 

Uploaded.net + rapidgator.net

 

 

 

 

 

 

 

http://shrt10.com/ScJeMk

 

 

http://shrt10.com/AIcbDx

 

 

 

 

http://shrt10.com/HnDFVYQ

 

 

http://shrt10.com/wvjiSSo

 

 

 

 

 

 

 

 

Watch Pro Wrestling Chaos 2018 02 17 Control Alt Delete Remastered WEB WD /720p