Watch Prelims UFC Fight Night 181 Full Show Online

Prelims UFC Fight Night 181 Full Show Online DX-TV

UFC Fight Night 181 Full Show Online

 

 UFC Fight Night 181 Full Show Online
 


 

 

Watch Prelims UFC Fight Night 181 Full Show Online

 

 

UFC FIGHT NIGHT: SILVA VS. HALL FIGHT CARD

MAIN CARD

  • Anderson Silva vs. Uriah Hall; Middleweight
  • Andre Fili vs. Bryce Mitchell; Featherweight 
  • Kevin Holland vs. Makhmud Muradov; Middleweight 
  • Maurice Greene vs. Greg Hardy; Heavyweight 
  • Bobby Green vs. Thiago Moisés; Lightweight

UFC Fight Night 181 Full Show Online

PRELIMINARY CARD

  • Chris Gruetzemacher vs. Alexander Hernandez; Lightweight
  • Adrian Yanez vs. Victor Rodriguez; Bantamweight 
  • Sean Strickland vs. Jack Marshman; Middleweight 
  • Cole Williams vs. Jason Witt; Welterweight 
  • Dustin Jacoby vs. Justin Ledet; Light Heavyweight 
  • Cortney Casey vs. Priscila Cachoeira; Women’s Flyweight 
  • Miles Johns vs. Kevin Natividad; Bantamweight 

UFC Fight Night 181 Full Show Online

Complete name : UFC.Fight.Night.182.Prelims.WEB.mp4
Format : MPEG-4
Format profile : Base Media
Codec ID : isom
File size : 1.67 GiB
Duration : 3 h 24 min
Overall bit rate mode : Variable
Overall bit rate : 1 170 kb/s
Writing application : Lavf58.12.100

UFC Fight Night 181 Full Show Online

Video
ID : 2
Format : AVC
Duration : 3 h 24 min
Source duration : 3 h 24 min
Bit rate mode : Variable
Bit rate : 1 030 kb/s
Maximum bit rate : 1 069 kb/s
Width : 896 pixels
Height : 504 pixels
Display aspect ratio : 16:9
Frame rate mode : Variable
Frame rate : 30.000 FPS
Standard : NTSC
Color space : YUV
Chroma subsampling : 4:2:0
Bit depth : 8 bits
Scan type : Progressive
Bits/(Pixel*Frame) : 0.076
Stream size : 1.47 GiB (88%)
Source stream size : 1.47 GiB (88%)
Color range : Limited
Color primaries : BT.709
Transfer characteristics : BT.709
Matrix coefficients : BT.709
Codec configuration box : avcC

 Fight Night 181 Full Show Online

Audio
ID : 3
Format : AAC LC
Format/Info : Advanced Audio
Codec ID : mp4a-40-2
Duration : 3 h 24 min
Bit rate mode : Constant
Bit rate : 132 kb/s
Channel(s) : 2 channels
Channel layout : L R
Sampling rate : 48.0 kHz
Frame rate : 46.875 FPS (1024 SPF)
Compression mode : Lossy
Stream size : 193 MiB (11%)
Default : Yes
Alternate group : 1

 

 

 

Watch Prelims  Fight Night 181 Full Show Online

 

 

 

 

Watch online

 

 

 

 

 

Server 1

 

 

 

 

UFC Fight Night 181 Full Show Online

 

 

 

 

Server-2

 

 

 

watch now

 

 

 

 

Uploaded By Site DX-TV.com

 

 

 

 

Download Free Links with normal and high Speed [ more 14 hosts ]  

 

[su_expand more_text=”Show Hosts Info” less_text=”Close all Info” height=”30″ text_color=”#000000″ link_color=”#e25f8b” link_style=”button” more_icon=”icon: arrow-down” less_icon=”icon: arrow-up”]

 

 Fight Night 181 Full Show Online

hexupload.net – clicknupload.co – www.multiup.org – uptobox.com – anonfiles.com – userscloud.com –

dropapk.to alfafile.net – ddownload.com – rockfile.co – 1fichier.com – filedown.org – katfile.com – filerio.in

 

 

[/su_expand]

 

 

http://shrt10.com/8MWTPFSC
http://shrt10.com/bgj5WNk2F
http://shrt10.com/EHZwks
http://shrt10.com/XPhqN
http://shrt10.com/26jnIw
http://shrt10.com/JoWYgr
http://shrt10.com/H5cjtaLJ
http://shrt10.com/FJA1vw7

 

 

 

 

Download Links with premium High Speed   

 

 

 

 

dropapk.to

 

 

 

nitroflare.com

 

 

 

rapidgator.net

 

 

 

uploaded.net

 

 

 

uploadgig.com

 

 

 

 

 

dx-tv.com

 

urlfree.net

You May Also Like

Leave a Reply

Your email address will not be published. Required fields are marked *

This site uses Akismet to reduce spam. Learn how your comment data is processed.