Watch PBC ON FOX Ortiz vs Flores 07 11 2020/ 1080i

PBC ON FOX Ortiz vs Flores 07 11 2020/ 1080i DX-TV

PBC ON FOX Ortiz vs Flores

 

 PBC ON FOX Ortiz vs Flores

 

Watch PBC ON FOX Ortiz vs Flores 07 11 2020/ 1080i

 

 

 

 

Complete name : PBC.ON.FOX.2020.11.07.Ortiz.vs.Flores.HDTV By DX-TV.com .mp4
Format : MPEG-4
Format profile : Base Media
Codec ID : mp42
File size : 1.22 GiB
Duration : 2 h 0 min
Overall bit rate : 1 444 kb/s

PBC ON FOX Ortiz vs Flores

Video
ID : 1
Format : AVC
Duration : 2 h 0 min
Bit rate : 1 277 kb/s
Width : 1 280 pixels
Height : 720 pixels
Display aspect ratio : 16:9
Frame rate mode : Variable
Frame rate : 25.000 FPS
Minimum frame rate : 15.111 FPS
Maximum frame rate : 25.000 FPS
Color space : YUV
Chroma subsampling : 4:2:0
Bit depth : 8 bits
Scan type : Progressive
Bits/(Pixel*Frame) : 0.055
Stream size : 1.08 GiB (88%)
Color range : Limited
Color primaries : BT.709
Transfer characteristics : BT.709
Matrix coefficients : BT.709
Codec configuration box : avc

PBC ON FOX Ortiz vs Flores

Audio
ID : 2
Format : AAC LC
Format/Info : Advanced Audio
Codec ID : mp4a-40-2
Duration : 2 h 0 min
Bit rate mode : Constant
Bit rate : 161 kb/s
Channel(s) : 2 channels
Channel layout : L R
Sampling rate : 48.0 kHz
Frame rate : 46.875 FPS (1024 SPF)
Compression mode : Lossy
Stream size : 139 MiB (11%)
Title : Stereo
Language : English
Default : Yes
Alternate group : 1

PBC ON FOX Ortiz vs Flores

 

PBC Ortiz vs Alexander 07 Nov 2020

Heavyweight contender Luis Ortiz will return to action on November 7.

when the Cuban southpaw will face 30-year-old Alexander Flores in the main event of a PBC card on FOX.

Flores has an okay record at 18-2-1(16) and against the 41-year-old (or older) Ortiz.

the man from Rowland Heights will have youth on his side, but make no mistake this is a mark-time/stay busy fight for Ortiz.

PBC ON FOX Ortiz vs Flores

Ortiz, who some fans feel might be closer to 50 than he is to age 40, is nevertheless a dangerous fight for anyone.

Beaten only by Deontay Wilder (stopped twice by “The Bronze Bomber”).

Ortiz has stated his full belief that he can become a world champion.

 

PBC Ortiz vs Alexander 07 Nov 2020

Ortiz said recently he is ready to fight “anybody.” So Ortiz, 31-2(26).

gets Flores next and will then hopefully move onto something bigger.

Flores last fought in November of last year when he stopped Mario Heredia.

Before that, in December of 2018, Flores was stopped in three rounds by Joseph Parker.

Flores’ other loss came in four rounds when he was stopped by Charles Martin.

In a nutshell, each time he has stepped up, Flores has been stopped.

 

 

Watch PBC ON FOX Ortiz vs Flores 07 11 2020/ 1080i

 

Watch online

 

 

Server 1

 

 

 

 

watch now

 

 

 

 

Server-2

 

 

 

watch now

 

 

 

 

 

 

Uploaded By Site DX-TV.com

 

 

 

 

Download Free Links with normal and high Speed [ more 14 hosts ]  

 

 

 

480p

 

http://shrt10.com/Wg6pGQ
http://shrt10.com/TU69Eea
http://shrt10.com/PqJO71
http://shrt10.com/n5pKJ68f
http://shrt10.com/72G45
http://shrt10.com/yfhsoXB
http://shrt10.com/Ub6pDG
http://shrt10.com/SJvqtA7mh

 

 

Download Links with premium High Speed   

 

 

 

 

dropapk.to

 

 

 

nitroflare.com

 

 

480p / 1080i

rapidgator.net

http://shrt10.com/wkASjjs

http://shrt10.com/O4Vl37mO

 

 

uploaded.net

 

 

 

uploadgig.com

 

 

 

 

 

dx-tv.com

 

urlfree.net

Leave a Reply

Your email address will not be published. Required fields are marked *

This site uses Akismet to reduce spam. Learn how your comment data is processed.