Skip to content
Home Watch PBC on fox Main Fight 2019 08 04 720p

Watch PBC on fox Main Fight 2019 08 04 720p

    Free Watch PBC on fox Main Fight 2019 08 04 720p DX-TV Full Show online

     

     

     

     

     

     

     

     

    dx-tv.com

     

     

     

    shrt10.com

     

     

     

     

    Free Watch PBC on fox Main Fight 2019 08 04 720p

     

     

     

     

    Free Watch PBC on fox Main Fight 2019 08 04 720p

     

     

     

     

     

     

     

    Shrt10.com

    now we have new very high rate

    we are paying with up to $25/1000 visits.​

    you can start now

    Minimum payment $5

    • you can earn up to 25 $ / 1000 unique views.

    • Payout via PayPal, Webmoney, BitCoins.

    • Real time stats, updated every 15 minute

    • You earn for all countries traffic

    • Payments max weekly 

    • Advanced statistics

     

     

     

     

     

     

     

     

     

     

    Complete name : Boxing PBC on fox Main fight 2019-08-04 720p.mp4
    Format : MPEG-4
    Format profile : Base Media
    Codec ID : mp42 (mp42)
    File size : 3.08 GiB
    Duration : 1 h 37 min
    Overall bit rate : 4 507 kb/s
    Production studio : studio

    Video

    Format : AVC
    Format/Info : Advanced Video Codec
    Codec ID/Info : Advanced Video Coding
    Duration : 1 h 37 min
    Bit rate : 4 368 kb/s
    Width : 1 280 pixels
    Height : 720 pixels
    Display aspect ratio : 16:9
    Frame rate mode : Constant
    Frame rate : 59.940 (60000/1001) FPS
    Color space : YUV
    Chroma subsampling : 4:2:0
    Bit depth : 8 bits
    Scan type : Progressive
    Bits/(Pixel*Frame) : 0.079
    Stream size : 2.98 GiB (97%)
    Language : English
    Codec configuration box : avcC

    Audio
    ID : 2
    Format : AAC LC
    Codec ID : mp4a-40-2
    Duration : 1 h 37 min
    Bit rate mode : Constant
    Bit rate : 128 kb/s
    Channel(s) : 2 channels
    Channel layout : L R
    Sampling rate : 48.0 kHz
    Frame rate : 46.875 FPS (1024 SPF)
    Compression mode : Lossy
    Stream size : 89.5 MiB (3%)
    Title : Stereo
    Language : English
    Default : Yes
    Alternate group : 1

     

     

     

     

     

     

    Watch online

     

     

    Waiting finish converting video

     

     

    Server 1

     

     

     

     

     

     

     

     

     

     

     

     

     

     

     

     

     

     

     

    Server 2

     

     

     

     

     

     

     

     

     

     

     

     

     

     

     

    Uploaded By Site DX-TV.com

     

     

     

     

    uploaded.net + rapidgator.net + nitroflare.com + bitster.cz 

     

     

     

     

     

     

    https://shrt10.com/gTwQsQK

     

     

     
    https://shrt10.com/jwbOCs

     

     

     
    https://shrt10.com/BA7hU

     

     

     
    https://shrt10.com/Yuh2Uss