Watch OTT Wrestling 2019 Fifth Year Anniversary 1080p

Watch OTT Wrestling 2019 10 26 Fifth Year Anniversary 1080p DX-TV

 

 

OTT Wrestling

 

 

 

 

dx-tv.com

 

 

 

 

Watch OTT Wrestling 2019 Fifth Year Anniversary 1080p

 

 

 

 

 

Complete name : Over.The.Top.Wrestling.2019.10.26.Fifth.Year.Anniversary.1080p.WEB.h264-iNDYHEEL.mp4
Format : MPEG-4
Format profile : Base Media
File size : 5.75 GiB
Duration : 3 h 13 min
Overall bit rate : 4 249 kb/s

Video
ID : 1
Format : AVC
Duration : 3 h 13 min
Duration_FirstFrame : -40 ms
Bit rate : 4 050 kb/s
Width : 1 920 pixels
Height : 1 080 pixels
Display aspect ratio : 16:9
Frame rate mode : Variable
Frame rate : 25.000 FPS
Minimum frame rate : 25.000 FPS
Maximum frame rate : 25.007 FPS
Color space : YUV
Chroma subsampling : 4:2:0
Bit depth : 8 bits
Scan type : Progressive
Bits/(Pixel*Frame) : 0.078
Stream size : 5.48 GiB (95%)
Codec configuration box : avcC

Audio
ID : 2
Format : AAC LC
Format/Info : Advanced Audio Codec Low Complexity
Codec ID : mp4a-40-2
Duration : 3 h 13 min
Bit rate mode : Constant
Bit rate : 192 kb/s
Channel(s) : 2 channels
Channel layout : L R
Sampling rate : 48.0 kHz
Frame rate : 46.875 FPS (1024 SPF)
Compression mode : Lossy
Stream size : 266 MiB (5%)
Default : Yes
Alternate group : 1

 

 

 

 

 

 

Watch online

 

 

Waiting finish converting video

 

 

Server 1

 

 

 

 

 

 

 

 

 

 

 

 

Server 2

 

 

 

 

 

 

 

 

 

 

 

 

 

 

Uploaded By Site DX-TV.com

 

 

 

 

 

Watch OTT Wrestling 2019 Fifth Year Anniversary 1080p

 

 

 

 

 

 

Recommended For Free

 

 

 

 

earn4files.com

 

 

 

 

 

 

clicknupload.org

 

 

 

 

 

Download with high speed with Premium account

 

 

 

 

nitroflare.com

 

 

 

rapidgator.net

 

 

 

uploaded.net

 

 

 

uploadgig.com

 

 

 

 

 

 

Leave a Reply

Your email address will not be published. Required fields are marked *

three × 4 =