Watch OTT Wrestling 2019 10 26 Fifth Year Anniversary

Watch Over The Top Wrestling 2019 10 26 Fifth Year Anniversary 720p DX-TV

 

 

Fifth Year Anniversary

 

 

 

 

dx-tv.com

 

 

 

 

Watch OTT Wrestling 2019 10 26 Fifth Year Anniversary

 

 

 

 

 

Complete name : Over.The.Top.Wrestling.2019.10.26.Fifth.Year.Anniversary.720p.WEB.h264-iNDYHEEL.mp4
Format : MPEG-4
Format profile : Base Media
Codec ID : isom
File size : 3.04 GiB
Duration : 3 h 13 min
Overall bit rate : 2 245 kb/s

Video
ID : 1
Format : AVC
Duration : 3 h 13 min
Duration_FirstFrame : -40 ms
Bit rate : 2 111 kb/s
Width : 1 280 pixels
Height : 720 pixels
Display aspect ratio : 16:9
Frame rate mode : Variable
Frame rate : 25.000 FPS
Minimum frame rate : 25.000 FPS
Maximum frame rate : 25.007 FPS
Color space : YUV
Chroma subsampling : 4:2:0
Bit depth : 8 bits
Scan type : Progressive
Bits/(Pixel*Frame) : 0.092
Stream size : 2.86 GiB (94%)
Codec configuration box : avcC

Audio
ID : 2
Format : AAC LC
Format/Info : Advanced Audio Codec Low Complexity
Codec ID : mp4a-40-2
Duration : 3 h 13 min
Bit rate mode : Constant
Bit rate : 128 kb/s
Channel(s) : 2 channels
Channel layout : L R
Sampling rate : 48.0 kHz
Frame rate : 46.875 FPS (1024 SPF)
Compression mode : Lossy
Stream size : 177 MiB (6%)
Default : Yes

 

 

 

 

 

Watch online

 

 

Waiting finish converting video

 

 

Server 1

 

 

 

 

 

 

 


 

 

 

 

 

Server 2

 

 

 

 

 

 

 

 

 

 

 

 

 

 

 

Uploaded By Site DX-TV.com

 

 

 

 

 

Watch OTT Wrestling 2019 10 26 Fifth Year Anniversary

 

 

 

 

 

 

Recommended For Free

 

 

 

 

earn4files.com

 

 

 

clicknupload.org

 

 

 

 

 

Download with high speed with Premium account

 

 

 

 

nitroflare.com

 

 

 

rapidgator.net

 

 

 

uploaded.net

 

 

 

uploadgig.com

 

 

 

 

 

 

Leave a Reply

Your email address will not be published. Required fields are marked *

9 + fourteen =