Watch Online WWE The Bump 2020 12 20 720p DX-TV

Watch Online WWE The Bump 2020 12 20 720p DX-TV

Watch Online WWE The Bump

 Watch Online WWE The Bump

 

Download Links with premium High Speed   

 

 

dropapk.to

http://shrt10.com/ObbxCm

 

 

nitroflare.com

http://shrt10.com/39MGxiNQd

 

 

rapidgator.net

http://shrt10.com/avC6hamN2

 

 

uploaded.net

http://shrt10.com/tcf90P

 

 

uploadgig.com

http://shrt10.com/kd5fD5l3

 

 

Watch online

 

Server 1

 

 

 

 

Watch Online WWE The Bump

 

 

 

 

Server-2

 

 

 

 

watch now

 

 

Uploaded By Site DX-TV.com

 

 

 

[su_expand more_text=”Show More Info” less_text=”Close all Info” height=”50″ text_color=”#000000″ link_color=”#e25f8b” link_style=”button” more_icon=”icon: arrow-down” less_icon=”icon: arrow-up”]
Complete name : WWE.The.Bump.2020.12.20.720p.Hi.WEB.h264-HEEL.mp4
Format : MPEG-4
Format profile : Base Media
Codec ID : isom
File size : 2.15 GiB
Duration : 1 h 26 min
Overall bit rate mode : Variable
Overall bit rate : 3 547 kb/s
Writing application : Lavf58.32.104

Watch Online WWE The Bump

Video
ID : 1
Format : AVC
Duration : 1 h 26 min
Bit rate : 3 372 kb/s
Width : 1 280 pixels
Height : 720 pixels
Display aspect ratio : 16:9
Frame rate mode : Constant
Frame rate : 30.000 FPS
Color space : YUV
Chroma subsampling : 4:2:0
Bit depth : 8 bits
Scan type : Progressive
Bits/(Pixel*Frame) : 0.122
Stream size : 2.03 GiB (94%)

 Online WWE The Bump

Audio
ID : 2
Format : AAC LC
Format/Info : Advanced Audio
Codec ID : mp4a-40-2
Duration : 1 h 26 min
Bit rate mode : Variable
Bit rate : 192 kb/s
Maximum bit rate : 460 kb/s
Channel(s) : 2 channels
Channel layout : L R
Sampling rate : 48.0 kHz
Frame rate : 46.875 FPS (1024 SPF)
Compression mode : Lossy
Stream size : 120 MiB (5%)
Default : Yes
Alternate group : 1

Watch Online WWE The  

ID : 2
Format : AAC LC
Format/Info : Advanced Audio
Codec ID : mp4a-40-2
Duration : 1 h 26 min
Bit rate mode : Variable
Bit rate : 192 kb/s
Maximum bit rate : 460 kb/s
Channel(s) : 2 channels
Channel layout : L R
Sampling rate : 48.0 kHz
Frame rate : 46.875 FPS (1024 SPF)
Compression mode : Lossy
Stream size : 120 MiB (5%)
Default : Yes
Alternate group : 1

 Online WWE The Bump

[/su_expand]

 

https://dx-tv.com/

Leave a Reply

Your email address will not be published. Required fields are marked *

This site uses Akismet to reduce spam. Learn how your comment data is processed.