Watch Online WWE SmackDown 2020/01/11 1080p HDTV H264 DX-TV

Watch Online WWE SmackDown 2020/01/11 1080p HDTV H264 DX-TV

 

 

wwe

 

 

 

 

dx-tv.com

 

 

 

 

Watch Online WWE SmackDown 2020/01/11 1080p HDTV H264 DX-TV

 

 

Note This resl including Full Show with ADS

 

 

Complete name : WWE.Friday.Night.SmackDown.2020.01.10.1080p.HDTV.H264.DX-TV.mp4
Format : MPEG-4
Format profile : Base Media
File size : 2.62 GiB
Duration : 1 h 58 min
Overall bit rate : 3 168 kb/s

Video
ID : 1
Format : AVC
Duration : 1 h 58 min
Bit rate : 3 000 kb/s
Width : 1 920 pixels
Height : 1 080 pixels
Display aspect ratio : 16:9
Frame rate mode : Constant
Frame rate : 30.000 FPS
Color space : YUV
Chroma subsampling : 4:2:0
Bit depth : 8 bits
Scan type : Progressive
Bits/(Pixel*Frame) : 0.048
Stream size : 2.48 GiB (95%)

Audio
ID : 2
Format : AAC LC
Codec ID : mp4a-40-2
Duration : 1 h 58 min
Bit rate mode : Constant
Bit rate : 160 kb/s
Channel(s) : 2 channels
Channel layout : L R
Sampling rate : 44.1 kHz
Frame rate : 43.066 FPS (1024 SPF)
Compression mode : Lossy
Stream size : 135 MiB (5%)
Default : Yes
Alternate group : 1

 

 

 

 

Watch online

 

 

Waiting finish converting video

 

 

Server 1

 

 

 

watch now

 

 

 

Watch Online WWE SmackDown 2020/01/11 1080p HDTV H264 DX-TV

 

 

 

Uploaded By Site DX-TV.com

 

 

 

 

 

Download VIP Members FTP server Download 1 Link and Free Links 

 

 

 

Limited Time will be removed after 90 days if you need available again pm email admin

 

[member]

FTP Link Download high speed

[/member]

1fichier.com 

 

 

dailyuploads.net

 

 

dl.free.fr

 

 

earn4files.com

 

[/member]

 

 

 

Download with premium account Links 

 

 

nitroflare.com

 

 

rapidgator.net

 

 

uploaded.net