Watch Online WWE NXT UK 2020 01 16 1080p

Watch Online WWE NXT UK 2020 01 16 1080p DX-TV

 

 

wwe raw

 

 

 

 

dx-tv.com

 

 

 

 

Watch Online WWE NXT UK 2020 01 16 1080p

 

 

 

 

 

Complete name : WWE.NXT.UK.2020.01.16.1080p.WEB.h264-HEEL.mp4
Format : MPEG-4
Format profile : Base Media
File size : 1.49 GiB
Duration : 36 min 0 s
Overall bit rate mode : Variable
Overall bit rate : 5 918 kb/s
Writing application : Lavf58.32.104

Video
ID : 1
Format : AVC
Duration : 36 min 0 s
Bit rate : 5 783 kb/s
Width : 1 920 pixels
Height : 1 080 pixels
Display aspect ratio : 16:9
Frame rate mode : Variable
Frame rate : 30.000 FPS
Minimum frame rate : 29.412 FPS
Maximum frame rate : 1 500.000 FPS
Color space : YUV
Chroma subsampling : 4:2:0
Bit depth : 8 bits
Scan type : Progressive
Bits/(Pixel*Frame) : 0.093
Stream size : 1.45 GiB (98%)

Audio
ID : 2
Format : AAC LC
Format/Info : Advanced Audio Codec Low Complexity
Codec ID : mp4a-40-2
Duration : 36 min 0 s
Bit rate mode : Variable
Bit rate : 125 kb/s
Maximum bit rate : 127 kb/s
Channel(s) : 2 channels
Channel layout : L R
Sampling rate : 48.0 kHz
Frame rate : 46.875 FPS (1024 SPF)
Compression mode : Lossy
Stream size : 32.3 MiB (2%)
Default : Yes
Alternate group : 1

Text #1
ID : 1-CC1
Format : EIA-608
Muxing mode : SCTE 128 / DTVCC Transport
Muxing mode, more info : Muxed in Video #1
Duration : 36 min 0 s
Bit rate mode : Constant
Stream size : 0.00 Byte (0%)
CaptionServiceName : CC1

Text #2
ID : 1-T1
Format : EIA-608
Muxing mode : SCTE 128 / DTVCC Transport
Muxing mode, more info : Muxed in Video #1
Duration : 36 min 0 s
Bit rate mode : Constant
Stream size : 0.00 Byte (0%)
CaptionServiceName : T1

 

 

Watch online

 

 

Server 1

 

 

 

 

 

 

 

 

 

 

 

Server 2

 

 

 

 

 

 

 

 

 

 

Server–3

 

 

 

 

 

 

 

 

 

Watch Online WWE NXT UK 2020 01 16 1080p

 

 

 

Uploaded By Site DX-TV.com

 

 

 

 

 

Download VIP Members FTP server Download 1 Link and Free Links 

 

 

 

Limited Time will be removed after 90 days if you need available again pm email admin

 

[member]  

 

FTP Link Download high speed

[/member]  

1fichier.com 

 

 

dailyuploads.net

 

 

dl.free.fr

 

 

earn4files.com

 

 

katfile.com

 

 

 

Download with premium account Links 

 

 

nitroflare.com

 

 

rapidgator.net

 

 

uploaded.net

 

 

 

 

 

 

 

 

 

 68 total views,  2 views today

%d bloggers like this: