Watch Online WWE NXT UK 2019 11 14 1080p

Watch Online WWE NXT UK 2019 11 14 1080p DX-TV

 

 

WWE NXT UK 2019

 

 

 

 

dx-tv.com

 

 

 

 

Watch Online WWE NXT UK 2019 11 14 1080p

 

 

 

 

 

Complete name : WWE.NXT.UK.2019.11.14.1080p.WEB.h264-HEEL.mp4
Format : MPEG-4
Format profile : Base Media
File size : 3.48 GiB
Duration : 1 h 2 min
Overall bit rate mode : Variable
Overall bit rate : 7 924 kb/s
Writing application : Lavf58.32.104

Video
ID : 1
Format : AVC
Format/Info : Advanced Video Codec
Codec ID/Info : Advanced Video Coding
Duration : 1 h 2 min
Bit rate : 7 808 kb/s
Width : 1 920 pixels
Height : 1 080 pixels
Display aspect ratio : 16:9
Frame rate mode : Constant
Frame rate : 30.000 FPS
Color space : YUV
Chroma subsampling : 4:2:0
Bit depth : 8 bits
Scan type : Progressive
Bits/(Pixel*Frame) : 0.126
Stream size : 3.39 GiB (97%)

Audio
ID : 2
Format : AAC LC
Format/Info : Advanced Audio Codec Low Complexity
Codec ID : mp4a-40-2
Duration : 1 h 2 min
Bit rate mode : Variable
Bit rate : 192 kb/s
Maximum bit rate : 429 kb/s
Channel(s) : 2 channels
Channel layout : L R
Sampling rate : 48.0 kHz
Frame rate : 46.875 FPS (1024 SPF)
Compression mode : Lossy
Stream size : 86.6 MiB (2%)
Default : Yes
Alternate group : 1

 

 

 

 

 

 

Watch online

 

 

Waiting finish converting video

 

 

Server 1

 

 

 

 

 

 

 

 

 

 

 

 

 

Server 2

 

 

 

 

 

 

 

 

 

 

 

 

 

 

Uploaded By Site DX-TV.com

 

 

 

 

 

Watch Online WWE NXT UK 2019 11 14 1080p

 

 

 

 

 

 

Recommended For Free

 

 

 

 

earn4files.com

 

 

 

 

 

katfile.com

 

 

 

 

 

 

clicknupload.org

 

 

 

 

 

Download with high speed with Premium account

 

 

 

 

 

 

 

nitroflare.com

 

 

 

 

 

 

 

rapidgator.net

 

 

 

 

 

 

 

uploaded.net

 

 

 

 

 

 

 

 

 

 

Categories

ADS



Archives