Watch Online WWE NXT UK 2019 10 03 1080p

Watch Online WWE NXT UK 2019 10 03 1080p DX-TV

 

 

WWE NXT UK

 

 

 

 

dx-tv.com

 

 

 

 

Watch Online WWE NXT UK 2019 10 03 1080p

 

 

 

 

 

Complete name : WWE.NXT.UK.2019.10.03.1080p.WEB.h264-HEEL.mp4
Format : MPEG-4
Format profile : Base Media
File size : 2.86 GiB
Duration : 50 min 46 s
Overall bit rate mode : Variable
Overall bit rate : 8 055 kb/s
ID : 1
Format : AVC
Duration : 50 min 46 s
Bit rate : 7 808 kb/s
Width : 1 920 pixels
Height : 1 080 pixels
Display aspect ratio : 16:9
Frame rate mode : Constant
Frame rate : 30.000 FPS
Color space : YUV
Chroma subsampling : 4:2:0
Bit depth : 8 bits
Scan type : Progressive
Bits/(Pixel*Frame) : 0.126
Stream size : 2.74 GiB (96%)

Audio #1
ID : 2
Codec ID : mp4a-40-2
Duration : 50 min 46 s
Bit rate mode : Constant
Bit rate : 192 kb/s
Channel(s) : 2 channels
Channel layout : L R
Sampling rate : 48.0 kHz
Frame rate : 46.875 FPS (1024 SPF)
Compression mode : Lossy
Stream size : 70.0 MiB (2%)
Language : English
Default : Yes
Alternate group : 1

 

 

 

 

 

 

 

Watch online

 

 

Waiting finish converting video

 

 

Server 1

 

 

 

 

 

 

 

 

 

 

 

 

 

 

Server 2

 

 

 

 

 

 

 

 

 

 

 

 

 

 

 

Uploaded By Site DX-TV.com

 

 

 

 

 

Watch Online WWE NXT UK 2019 10 03 1080p

 

 

 

 

 

 

Recommended For Free

 

 

 

4downfiles.org

 

 

 

earn4files.com

 

 

 

fileup.cc

 

 

 

uptobox.com

 

 

 

 

Download with high speed with Premium account

 

 

 

 

nitroflare.com

 

 

 

rapidgator.net

 

 

 

uploaded.net

 

 

 

uploadgig.com

 

 

 

 

 

 

Categories

ADS



Archives