Watch Online WWE NXT UK 2019 09 25

Watch Online WWE NXT UK 2019 09 25 DX-TV

 

 

WWE NXT UK
WWE NXT UK

 

 

 

 

dx-tv.com

 

 

 

 

Watch Online WWE NXT UK 2019 09 25

 

 

 

 

 

Complete name : WWE.NXT.UK.2019.09.25.WEB.h264-HEEL.mp4
Format : MPEG-4
Format profile : Base Media
Codec ID : isom (isom/iso2/avc1/mp41)
File size : 539 MiB
Duration : 46 min 24 s
Overall bit rate mode : Variable
Overall bit rate : 1 625 kb/s

Video
ID : 1
Duration : 46 min 24 s
Bit rate mode : Variable
Bit rate : 1 491 kb/s
Maximum bit rate : 1 663 kb/s
Width : 896 pixels
Height : 504 pixels
Display aspect ratio : 16:9
Frame rate mode : Variable
Frame rate : 30.000 FPS
Minimum frame rate : 29.412 FPS
Maximum frame rate : 30.303 FPS
Standard : NTSC
Color space : YUV
Chroma subsampling : 4:2:0
Bit depth : 8 bits
Scan type : Progressive
Bits/(Pixel*Frame) : 0.110
Stream size : 495 MiB (92%)

Audio
ID : 2
Codec ID : mp4a-40-2
Duration : 46 min 24 s
Bit rate mode : Variable
Bit rate : 125 kb/s
Maximum bit rate : 135 kb/s
Channel(s) : 2 channels
Channel layout : L R
Sampling rate : 48.0 kHz
Frame rate : 46.875 FPS (1024 SPF)
Compression mode : Lossy
Stream size : 41.6 MiB (8%)
Default : Yes

 

 

 

 

 

 

Watch online

 

 

Waiting finish converting video

 

 

Server 1

 

 

 

 

 

 

 

 

 

 

 

 

 

 

Server 2

 

 

 

 

 

 

 

 

 

 

 

 

 

 

 

Uploaded By Site DX-TV.com

 

 

 

https://shrt10.com
https://shrt10.com

 

 

 


 

 


 

Watch Online WWE NXT UK 2019 09 25

 

 

 

 

 

 

Recommended For Free

 

 

4downfiles.org

 

 

earn4files.com

 

 

 

Download with high speed with Premium account

 

 

 

 

nitroflare.com

 

 

 

rapidgator.net

 

 

 

uploaded.net

 

 

 

uploadgig.com

 

 

 

Categories

ADS



Archives