Watch Online WWE Break It Down E01 Drew McIntyre 1080p

Watch Online WWE Break It Down E01 Drew McIntyre 1080p DX-TV

 

 

wwe raw

 

 

 

 

dx-tv.com

 

 

 

 

Watch Online WWE Break It Down E01 Drew McIntyre 1080p

 

 

 

 

 

Complete name : WWE.Break.It.Down.E01.Drew.McIntyre.1080p.WEB.h264-HEEL.mp4
Format : MPEG-4
Format profile : Base Media
File size : 848 MiB
Duration : 15 min 6 s
Overall bit rate mode : Variable
Overall bit rate : 7 852 kb/s
Writing application : Lavf58.32.104

Video
ID : 1
Format : AVC
Duration : 15 min 6 s
Bit rate : 7 808 kb/s
Width : 1 920 pixels
Height : 1 080 pixels
Display aspect ratio : 16:9
Frame rate mode : Constant
Frame rate : 30.000 FPS
Color space : YUV
Chroma subsampling : 4:2:0
Bit depth : 8 bits
Scan type : Progressive
Bits/(Pixel*Frame) : 0.126
Stream size : 827 MiB (97%)

Audio
ID : 2
Format : AAC LC
Codec ID : mp4a-40-2
Duration : 15 min 6 s
Bit rate mode : Variable
Bit rate : 192 kb/s
Maximum bit rate : 241 kb/s
Channel(s) : 2 channels
Channel layout : L R
Sampling rate : 48.0 kHz
Frame rate : 46.875 FPS (1024 SPF)
Compression mode : Lossy
Stream size : 20.7 MiB (2%)
Default : Yes
Alternate group : 1

 

 

 

 

 

 

Watch online

 

Server 1

 

 

 

 

 

 

 

Watch Online WWE Break It Down E01 Drew McIntyre 1080p

 

 

 

Uploaded By Site DX-TV.com

 

 

 

 

 

Download VIP Members FTP server Download 1 Link and Free Links 

 

 

 

Limited Time will be removed after 90 days if you need available again pm email admin

 

This section is only available to registered users.

 

1fichier.com 

 

 

dailyuploads.net

 

 

earn4files.com

 

 

dl.free.fr

 

 

katfile.com

 

 

rockfile.co

 

 

Ubloadbank.com

 

 

 

 

Download with premium account Links 

 

 

nitroflare.com

 

 

rapidgator.net

 

 

uploaded.net

 

 

 

 

 

 

 

 

 

Categories

ADS



Archives