Watch Online WWE Backstage 2020 01 07 720p

Watch Online WWE Backstage 2020 01 07 720pDX-TV

 

 

wwe raw

 

 

 

 

dx-tv.com

 

 

 

 

 

 

 

 

 

Complete name : WWE.Backstage.2020.01.07.720p.WEB.h264-HEEL.mp4
Format : MPEG-4
Format profile : Base Media
Codec ID : isom (isom/iso2/avc1/mp41)
File size : 1.88 GiB
Duration : 44 min 33 s
Overall bit rate mode : Variable
Overall bit rate : 6 027 kb/s
Movie name : Big East Mens
Law rating : TV-PG (LV)
Writing application : Lavf58.32.104

Video
ID : 1
Format : AVC
Duration : 44 min 33 s
Bit rate mode : Variable
Bit rate : 5 956 kb/s
Maximum bit rate : 12.0 Mb/s
Width : 1 280 pixels
Height : 720 pixels
Display aspect ratio : 16:9
Frame rate mode : Variable
Frame rate : 59.940 FPS
Minimum frame rate : 59.920 FPS
Maximum frame rate : 60.000 FPS
Original frame rate : 60.000 FPS
Color space : YUV
Chroma subsampling : 4:2:0
Bit depth : 8 bits
Scan type : Progressive
Bits/(Pixel*Frame) : 0.108
Stream size : 1.85 GiB (99%)
Codec configuration box : avcC

Audio
ID : 2
Format : AAC LC SBR
Commercial name : HE-AAC
Format settings : Implicit
Codec ID : mp4a-40-2
Duration : 44 min 33 s
Bit rate mode : Constant
Bit rate : 62.9 kb/s
Channel(s) : 2 channels
Channel layout : L R
Sampling rate : 48.0 kHz
Frame rate : 23.438 FPS (2048 SPF)
Compression mode : Lossy
Stream size : 20.0 MiB (1%)
Default : Yes
Alternate group : 1

 

 

 

 

 

 

Watch online

 

 

Server 1

 

 

 

 

 

 

 

 

 

 

 

Server 2

 

 

 

 

 

 

 

 

 

 

Server–3

 

 

 

 

 

 

 

 

 

Watch Online WWE Backstage 2020 01 07 720p

 

 

 

Uploaded By Site DX-TV.com

 

 

 

 

 

Download VIP Members FTP server Download 1 Link and Free Links 

 

 

 

Limited Time will be removed after 90 days if you need available again pm email admin

 

This section is only available to registered users.

 

1fichier.com 

 

 

dailyuploads.net

 

 

earn4files.com

 

 

dl.free.fr

 

 

katfile.com

 

 

rockfile.co

 

 

Ubloadbank.com

 

 

 

 

Download with premium account Links 

 

 

nitroflare.com

 

 

rapidgator.net

 

 

uploaded.net

 

 

 

 

 

 

 

 

 

Categories

ADS



Archives