Watch Online WWE After The Bell E34 The Undertaker

WWE After The Bell E34 The Undertaker 1080p DX-TV

WWE After The Bell The Undertaker

 

 WWE After The Bell The Undertaker
 


 

 

Watch Online WWE After The Bell E34 The Undertaker

 

 

Before the fifth and final installment of WWE Network’s groundbreaking docuseries Undertaker: The Last Ride debuts on Sunday, 

The Deadman emerges on WWE After the Bell with Corey Graves to discuss his legendary career,

his greatest allies and opponents and why his bond with Vince McMahon has remained so strong over the past three decades.

Also on the podcast, The Undertaker gives his candid thoughts on The Greatest Wrestling Match Ever between Edge and Randy Orton at WWE Backlash,

whether he ever actually considered jumping ship to WCW and what The Demon from Death Valley does in his spare time.

WWE After the Bell drops every Thursday. Subscribe here to listen and never miss an episode

WWE After The Bell The Undertaker

Complete name : WWE.After.The.Bell.E34.The.Undertaker.1080p.WEB.h264-HEEL.mp4
Format : MPEG-4
Format profile : Base Media
Codec ID : isom
File size : 2.86 GiB
Duration : 51 min 31 s
Overall bit rate : 7 956 kb/s
Writing application : Lavf58

WWE After The Bell The Undertaker

Video
ID : 1
Format : AVC
Duration : 51 min 31 s
Bit rate : 7 808 kb/s
Width : 1 920 pixels
Height : 1 080 pixels
Aspect ratio : 16:9
Frame rate mode : Constant
Frame rate : 30.000 FPS
Color space : YUV
Chroma sampling : 4:2:0
Bit depth : 8 bits
Scan type : Progressive
Bits/(Pixel*Frame) : 0.126
Stream size : 2.79 GiB

WWE After The Bell The Undertaker

Audio
ID : 2
Format : AAC LC
Format/Info : Advanced Audio
Codec ID : mp4a-40-2
Duration : 51 min 31 s
Bit rate mode : Constant
Bit rate : 192 kb/s
Channel(s) : 2 channels
Channel layout : L R
Sampling rate : 48.0 kHz
Frame rate : 46.875 FPS
Compression mode : Lossy
Stream size : 70.9 MiB
Default : Yes
Alternate group : 1

 

 

 

Watch Online WWE After The Bell E34 The Undertaker

 

 

 

Watch online

 

 

 

Server 1

 

 

 

 

WWE After The Bell The Undertaker

 

 

 

 

Server-2

 

 

 

watch now

 

 

 

 

 

Uploaded By Site DX-TV.com

 

 

 

 

Download Free Links with normal and high Speed [ more 14 hosts ]  

 

 

 

http://shrt10.com/Uu3GeNP18
http://shrt10.com/jpKg6Kyc
http://shrt10.com/anmw1frX
http://shrt10.com/gQfY0
http://shrt10.com/bvMOshr
http://shrt10.com/Th0CUYc
http://shrt10.com/Awy1vq

 

 

 

 

Download Links with premium High Speed   

 

 

 

 

dropapk.to

 

 

 

nitroflare.com

 

 

 

rapidgator.net

 

 

 

uploaded.net

 

 

 

uploadgig.com

 

 

 

 

 

dx-tv.com

 

urlfree.net

Leave a Reply

Your email address will not be published. Required fields are marked *

This site uses Akismet to reduce spam. Learn how your comment data is processed.