Watch Online WWE 205 Live 2020 10 16 1080p

Online WWE 205 Live 2020 10 16 1080p DX-TV

 

Watch Online WWE

 

 Watch Online WWE

 

Watch Online WWE 205 Live 2020 10 16 1080p

 

 

Scott collides with Kendrick, Daivari Dinero Division returns on must-see edition of 205 Live

 

Tonight’s edition of 205 Live features what is certain to be an edge-of-your-seat battle between Isaiah “Swerve” Scott and The Brian Kendrick, as well as the return of Daivari’s Dinero Division.

It has been an interesting few weeks for The Brian Kendrick, who has picked up two recent wins against Ashante “Thee” Adonis but also appeared to take the brash rookie under his wing, imparting his veteran wisdom on his frequent opponent several times.

Adonis appeared to heed the former Cruiserweight Champion’s advice in their third and most recent meeting, limiting his trash talk and showboating en route to a victory against The Man With a Plan.

Watch Online WWE

Isaiah “Swerve” Scott has had an adventurous couple of weeks himself, coming within an eyelash of winning the NXT Cruiserweight Title from Santos Escobar at TakeOver 31 and continuing to wage a war against all of Legado del Fantasma.

Interestingly, Adonis, who has been receiving lessons from Kendrick, also tried to dish out an assist to “Swerve” during the Cruiserweight Championship bout, as Adonis rushed to the ringside area to help Scott fight off the meddlesome Joaquin Wilde and Raul Mendoza.

Regardless, two of the absolute best on the purple brand will square off tonight in what is sure to be a must-see collision, and both Superstars can ill-afford another loss.

Watch Online WWE

Complete name : WWE.205.Live.2020.10.16.1080p.WEB.h264-HEEL.mp4
Format : MPEG-4
Format profile : Base Media
Codec ID : isom
File size : 1.52 GiB
Duration : 27 min 28 s
Overall bit rate mode : Variable
Overall bit rate : 7 936 kb/s
Writing application : Lavf58.32.104

Watch Online WWE 205 Live 2020

Video
ID : 1
Format : AVC
Duration : 27 min 28 s
Bit rate : 7 808 kb/s
Width : 1 920 pixels
Height : 1 080 pixels
Display aspect ratio : 16:9
Frame rate mode : Constant
Frame rate : 30.000 FPS
Color space : YUV
Chroma subsampling : 4:2:0
Bit depth : 8 bits
Scan type : Progressive
Bits/(Pixel*Frame) : 0.126
Stream size : 1.48 GiB (97%)

Watch Online WWE

Audio
ID : 2
Format : AAC LC
Format/Info : Advanced Audio
Codec ID : mp4a-40-2
Duration : 27 min 28 s
Bit rate mode : Variable
Bit rate : 192 kb/s
Maximum bit rate : 415 kb/s
Channel(s) : 2 channels
Channel layout : L R
Sampling rate : 48.0 kHz
Frame rate : 46.875 FPS (1024 SPF)
Compression mode : Lossy
Stream size : 37.9 MiB (2%)
Default : Yes
Alternate group : 1

 

 

 

 

 

 

 

Watch online

 

 

 

 

 

Server 1

 

 

 

 

watch now

 

 

 

 

Server-2

 

 

 

watch now

 

 

 

 

Server-3

 

 

 

Watch Online WWE

 

 

 

 

Uploaded By Site DX-TV.com

 

 

 

 

Download Free Links with normal and high Speed [ more 14 hosts ]  

 

 

 

 

 

 

 

 

Download Links with premium High Speed   

 

 

dropapk.to

 

 

 

nitroflare.com

 

 

 

rapidgator.net

 

 

 

uploaded.net

 

 

 

uploadgig.com

 

 

 

 

 

dx-tv.com

 

urlfree.net

Leave a Reply

Your email address will not be published. Required fields are marked *

This site uses Akismet to reduce spam. Learn how your comment data is processed.